<?xml version="1.0" standalone="no"?>
<!DOCTYPE svg PUBLIC "-//W3C//DTD SVG 1.1//EN" "http://www.w3.org/Graphics/SVG/1.1/DTD/svg11.dtd" >
<svg xmlns="http://www.w3.org/2000/svg">
<metadata>Generated by IcoMoon</metadata>
<defs>
<font id="pressville-icons" horiz-adv-x="1024">
<font-face units-per-em="1024" ascent="960" descent="-64" />
<missing-glyph horiz-adv-x="1024" />
<glyph unicode="&#x20;" horiz-adv-x="512" d="" />
<glyph unicode="&#xe900;" glyph-name="add-circle-plus" d="M512 865.481c-235.264 0-426.667-191.403-426.667-426.667s191.403-426.667 426.667-426.667 426.667 191.403 426.667 426.667-191.403 426.667-426.667 426.667zM725.333 396.148h-170.667v-170.667h-85.333v170.667h-170.667v85.333h170.667v170.667h85.333v-170.667h170.667v-85.333z" />
<glyph unicode="&#xe901;" glyph-name="airplane" d="M384 865.524h255.957v-85.333h-255.957v85.333zM930.901 574.921c-11.435 21.291-33.621 34.603-57.813 34.603h-275.755v42.667c0 47.104-38.229 85.333-85.333 85.333s-85.333-38.229-85.333-85.333v-42.667h-275.797c-24.192 0-46.379-13.312-57.813-34.603s-10.155-47.189 3.243-67.328c11.264-16.811 28.075-29.184 47.573-34.688l282.795-103.723v-143.659h-85.333c-47.104 0-85.333-38.229-85.333-85.333v-85.333h512v85.333c0 47.104-38.229 85.333-85.333 85.333h-85.333v143.659l282.709 103.723c19.499 5.504 36.352 17.877 47.573 34.688 13.44 20.139 14.677 45.995 3.285 67.328zM512 438.857c-35.328 0-64 28.672-64 64s28.672 64 64 64c35.371 0 64-28.672 64-64s-28.629-64-64-64z" />
<glyph unicode="&#xe902;" glyph-name="arrow-long-left" d="M938.667 481.524h-665.003l97.835 97.835-60.331 60.331-200.832-200.832 200.832-200.789 60.331 60.288-97.835 97.835h665.003z" />
<glyph unicode="&#xe903;" glyph-name="arrow-long-right" d="M712.832 639.689l-60.331-60.331 97.835-97.835h-665.003v-85.333h665.003l-97.835-97.835 60.331-60.288 200.832 200.789z" />
<glyph unicode="&#xe904;" glyph-name="asterisk" d="M896 524.19h-236.16l118.059 204.544-147.755 85.333-118.144-204.544-118.101 204.544-147.755-85.333 118.144-204.544h-236.288v-170.667h236.245l-118.101-204.587 147.755-85.333 118.144 204.672 118.101-204.587 147.755 85.333-118.059 204.501h236.16z" />
<glyph unicode="&#xe905;" glyph-name="boat-sail" d="M838.4 182.857l100.267 213.333h-853.333l99.413-213.333zM640 908.19l-384-426.667h384zM938.667 97.524h-85.333c0-47.104-38.272-85.333-85.333-85.333s-85.333 38.229-85.333 85.333h-85.333c0-47.104-38.272-85.333-85.333-85.333s-85.333 38.229-85.333 85.333h-85.333c0-47.104-38.272-85.333-85.333-85.333s-85.333 38.229-85.333 85.333h-85.333c0-47.104-38.272-85.333-85.333-85.333v-85.333c51.2 0 96.683 23.211 128 59.008 31.317-35.797 76.8-59.008 128-59.008s96.683 23.211 128 59.008c31.317-35.797 76.8-59.008 128-59.008s96.683 23.211 128 59.008c31.317-35.797 76.8-59.008 128-59.008s96.683 23.211 128 59.008c31.317-35.797 76.8-59.008 128-59.008v85.333c-47.061 0-85.333 38.229-85.333 85.333z" />
<glyph unicode="&#xe906;" glyph-name="building-historic" d="M554.667 819.017v89.173h-85.333v-89.173c-121.003-20.352-213.333-125.355-213.333-252.16h512c0 126.805-92.331 231.808-213.333 252.16zM938.667 268.19h-128v170.667c0 23.552-19.115 42.667-42.667 42.667h-512c-23.552 0-42.667-19.115-42.667-42.667v-170.667h-128c-23.552 0-42.667-19.115-42.667-42.667v-170.667c0-23.595 19.115-42.667 42.667-42.667h853.333c23.552 0 42.667 19.072 42.667 42.667v170.667c0 23.552-19.115 42.667-42.667 42.667zM213.333 97.524h-85.333v85.333h85.333v-85.333zM384 97.524h-85.333v85.333h85.333v-85.333zM384 310.857h-85.333v85.333h85.333v-85.333zM554.667 97.524h-85.333v85.333h85.333v-85.333zM554.667 310.857h-85.333v85.333h85.333v-85.333zM725.333 97.524h-85.333v85.333h85.333v-85.333zM725.333 310.857h-85.333v85.333h85.333v-85.333zM896 97.524h-85.333v85.333h85.333v-85.333z" />
<glyph unicode="&#xe907;" glyph-name="building" d="M896 438.857h-170.667v298.667c0 23.552-19.115 42.667-42.667 42.667h-42.667v42.667c0 23.552-19.115 42.667-42.667 42.667h-170.667c-23.552 0-42.667-19.115-42.667-42.667v-42.667h-42.667c-23.552 0-42.667-19.115-42.667-42.667v-298.667h-170.667c-23.552 0-42.667-19.115-42.667-42.667v-341.333c0-23.595 19.115-42.667 42.667-42.667h298.667v170.667h170.667v-170.667h298.667c23.552 0 42.667 19.072 42.667 42.667v341.333c0 23.552-19.115 42.667-42.667 42.667zM256 97.524h-85.333v85.333h85.333v-85.333zM256 268.19h-85.333v85.333h85.333v-85.333zM469.333 268.19h-85.333v85.333h85.333v-85.333zM469.333 438.857h-85.333v85.333h85.333v-85.333zM469.333 609.524h-85.333v85.333h85.333v-85.333zM640 268.19h-85.333v85.333h85.333v-85.333zM640 438.857h-85.333v85.333h85.333v-85.333zM640 609.524h-85.333v85.333h85.333v-85.333zM853.333 97.524h-85.333v85.333h85.333v-85.333zM853.333 268.19h-85.333v85.333h85.333v-85.333z" />
<glyph unicode="&#xe908;" glyph-name="bus" d="M853.333 140.19c0-47.128-38.205-85.333-85.333-85.333s-85.333 38.205-85.333 85.333c0 47.128 38.205 85.333 85.333 85.333s85.333-38.205 85.333-85.333zM341.333 140.19c0-47.128-38.205-85.333-85.333-85.333s-85.333 38.205-85.333 85.333c0 47.128 38.205 85.333 85.333 85.333s85.333-38.205 85.333-85.333zM938.667 737.524h-853.333c-47.104 0-85.333-38.229-85.333-85.333v-469.333c0-23.595 19.115-42.667 42.667-42.667h85.333c0 70.656 57.344 128 128 128s128-57.344 128-128h256c0 70.656 57.344 128 128 128s128-57.344 128-128h85.333c23.552 0 42.667 19.072 42.667 42.667v469.333c0 47.104-38.229 85.333-85.333 85.333zM298.667 481.524l-213.333-128v256h213.333v-128zM512 481.524h-128v128h128v-128zM725.333 481.524h-128v128h128v-128zM938.667 481.524h-128v128h128v-128z" />
<glyph unicode="&#xe909;" glyph-name="calendar" d="M896 822.857h-85.333v85.333h-85.333v-213.333h-85.333v128h-256v85.333h-85.333v-213.333h-85.333v128h-85.333c-47.061 0-85.333-38.315-85.333-85.333v-640c0-47.019 38.272-85.333 85.333-85.333h768c47.061 0 85.333 38.315 85.333 85.333v640c0 47.061-38.272 85.333-85.333 85.333zM341.333 140.19h-170.667v170.667h170.667v-170.667zM341.333 396.19h-170.667v170.667h170.667v-170.667zM597.333 140.19h-170.667v170.667h170.667v-170.667zM597.333 396.19h-170.667v170.667h170.667v-170.667zM853.333 396.19h-170.667v170.667h170.667v-170.667z" />
<glyph unicode="&#xe90a;" glyph-name="calendar-2" d="M469.333 207.86l-158.165 158.165 60.331 60.331 97.835-97.835 183.168 183.168 60.331-60.331-243.499-243.499zM896 822.857h-85.333v85.333h-85.333v-213.333h-42.667v128h-341.333v85.333h-85.333v-213.333h-42.667v128h-85.333c-47.061 0-85.333-38.315-85.333-85.333v-640c0-47.061 38.272-85.333 85.333-85.333h768c47.061 0 85.333 38.272 85.333 85.333v640c0 47.019-38.272 85.333-85.333 85.333z" />
<glyph unicode="&#xe90b;" glyph-name="calendar-3" d="M670.165 298.356l-60.331-60.331-97.835 97.835-97.835-97.835-60.331 60.331 97.835 97.835-97.835 97.835 60.331 60.331 97.835-97.835 97.835 97.835 60.331-60.331-97.835-97.835 97.835-97.835zM896 822.857h-85.333v85.333h-85.333v-213.333h-42.667v128h-341.333v85.333h-85.333v-213.333h-42.667v128h-85.333c-47.061 0-85.333-38.315-85.333-85.333v-640c0-47.061 38.272-85.333 85.333-85.333h768c47.061 0 85.333 38.272 85.333 85.333v640c0 47.019-38.272 85.333-85.333 85.333z" />
<glyph unicode="&#xe90c;" glyph-name="calendar-4" d="M896 822.857h-85.333v85.333h-85.333v-213.333h-42.667v128h-341.333v85.333h-85.333v-213.333h-42.667v128h-85.333c-47.061 0-85.333-38.315-85.333-85.333v-640c0-47.061 38.272-85.333 85.333-85.333h768c47.061 0 85.333 38.272 85.333 85.333v640c0 47.019-38.272 85.333-85.333 85.333zM661.333 182.857l-149.333 106.581-149.333-106.581 64 170.795-128 85.205h149.333l64.299 170.667 63.701-170.667h149.333l-128-85.205 64-170.795z" />
<glyph unicode="&#xe90d;" glyph-name="car" d="M896 140.19c0-47.128-38.205-85.333-85.333-85.333s-85.333 38.205-85.333 85.333c0 47.128 38.205 85.333 85.333 85.333s85.333-38.205 85.333-85.333zM298.667 140.19c0-47.128-38.205-85.333-85.333-85.333s-85.333 38.205-85.333 85.333c0 47.128 38.205 85.333 85.333 85.333s85.333-38.205 85.333-85.333zM938.667 396.19h-42.667l-85.333 170.667h-469.333l-85.333-170.667h-170.667c-47.147 0-85.333-38.229-85.333-85.333v-128c0-23.595 19.115-42.667 42.667-42.667h42.667c0 70.656 57.344 128 128 128s128-57.344 128-128h341.333c0 70.656 57.344 128 128 128s128-57.344 128-128h42.667c23.552 0 42.667 19.072 42.667 42.667v128c0 47.104-38.229 85.333-85.333 85.333zM597.333 396.19h-256l42.667 85.333h213.333v-85.333zM682.667 396.19v85.333h85.333l42.667-85.333h-128z" />
<glyph unicode="&#xe90e;" glyph-name="check-shield" d="M918.485 732.148l-384 213.333c-12.928 7.168-28.544 7.168-41.472 0l-384-213.333c-13.525-7.552-21.888-21.803-21.888-37.291 0-29.611 4.864-725.333 426.667-725.333s426.667 695.723 426.667 725.333c0 15.488-8.405 29.739-21.973 37.291zM528.213 233.374l-217.088 162.816 64 85.333 124.203-93.184 182.571 292.096 90.453-56.533-244.139-390.528z" />
<glyph unicode="&#xe90f;" glyph-name="comments" d="M853.248 865.524h-682.667c-47.061 0-85.333-38.272-85.333-85.333v-512c0-47.061 38.229-85.333 85.333-85.333h85.333v-170.667l227.584 170.667h369.749c47.104 0 85.333 38.272 85.333 85.333v512c0 47.061-38.229 85.333-85.333 85.333zM298.581 385.524c-29.44 0-53.333 23.893-53.333 53.333s23.893 53.333 53.333 53.333c29.44 0 53.333-23.893 53.333-53.333s-23.893-53.333-53.333-53.333zM298.581 556.19c-29.44 0-53.333 23.893-53.333 53.333s23.893 53.333 53.333 53.333c29.44 0 53.333-23.893 53.333-53.333s-23.893-53.333-53.333-53.333zM767.915 396.19h-341.333v85.333h341.333v-85.333zM767.915 566.857h-341.333v85.333h341.333v-85.333z" />
<glyph unicode="&#xe910;" glyph-name="compass" d="M512 865.524c-235.264 0-426.667-191.403-426.667-426.667 0-235.307 191.403-426.667 426.667-426.667s426.667 191.36 426.667 426.667c0 235.264-191.403 426.667-426.667 426.667zM512 353.524l-213.333-128 213.333 512 213.333-512-213.333 128z" />
<glyph unicode="&#xe911;" glyph-name="content-text" d="M0 950.857h1024v-114.667h-1024zM0-73.143v114.667h1024v-114.667zM0 382.857v112h1024v-112zM682.667 724.19v-114.667h-682.667v114.667zM682.667 268.19v-114.667h-682.667v114.667z" />
<glyph unicode="&#xe912;" glyph-name="direction-sign" d="M384 140.19h128v-128h-128v128zM768 438.857h-256v42.667h-128v-42.667h-153.003c-11.307 0-22.187-4.523-30.165-12.501l-85.333-85.333c-16.683-16.64-16.683-43.691 0-60.373l85.333-85.333c7.979-7.979 18.859-12.459 30.165-12.459h537.003c23.552 0 42.667 19.072 42.667 42.667v170.667c0 23.552-19.115 42.667-42.667 42.667zM823.168 682.356l-85.333 85.333c-8.021 7.979-18.859 12.501-30.165 12.501h-195.669v85.333h-128v-85.333h-213.333c-23.552 0-42.667-19.115-42.667-42.667v-170.667c0-23.595 19.115-42.667 42.667-42.667h537.003c11.307 0 22.187 4.523 30.165 12.459l85.333 85.333c16.683 16.683 16.683 43.733 0 60.373z" />
<glyph unicode="&#xe913;" glyph-name="download" d="M810.667 822.814h-597.333c-47.061 0-85.333-38.272-85.333-85.333v-597.333c0-47.019 38.272-85.333 85.333-85.333h597.333c47.104 0 85.333 38.315 85.333 85.333v597.333c0 47.061-38.229 85.333-85.333 85.333zM512 207.817l-200.832 200.832 60.331 60.331 97.835-97.835v281.003h85.333v-281.003l97.835 97.835 60.331-60.331-200.832-200.832z" />
<glyph unicode="&#xe914;" glyph-name="email-envelope" d="M512 489.076l382.507 237.355c-12.288 6.827-26.155 11.093-41.173 11.093h-682.667c-15.019 0-28.928-4.267-41.173-11.093l382.507-237.355zM534.485 402.633c-6.869-4.267-14.677-6.443-22.485-6.443s-15.616 2.176-22.485 6.4l-404.053 250.752c0-0.384-0.128-0.768-0.128-1.109v-384c0-47.019 38.272-85.333 85.333-85.333h682.667c47.061 0 85.333 38.315 85.333 85.333v384c0 0.384-0.128 0.768-0.128 1.152l-404.053-250.752z" />
<glyph unicode="&#xe915;" glyph-name="file-default" d="M657.664 865.524h-401.664c-47.061 0-85.333-38.315-85.333-85.333v-682.667c0-47.061 38.272-85.333 85.333-85.333h512c47.061 0 85.333 38.272 85.333 85.333v572.331l-195.669 195.669zM597.333 609.524v213.333l213.333-213.333h-213.333z" />
<glyph unicode="&#xe916;" glyph-name="file-download" d="M755.499 493.982l-60.331 60.331-140.501-140.501v451.669h-85.333v-451.669l-140.501 140.501-60.331-60.331 243.499-243.499zM768 182.814v-85.333h-512v85.333h-85.333v-85.333c0-47.019 38.272-85.333 85.333-85.333h512c47.104 0 85.333 38.315 85.333 85.333v85.333h-85.333z" />
<glyph unicode="&#xe917;" glyph-name="file-images" d="M700.331 908.148h-486.997c-47.061 0-85.333-38.272-85.333-85.333v-768c0-47.061 38.272-85.333 85.333-85.333h597.333c47.061 0 85.333 38.272 85.333 85.333v657.664l-195.669 195.669zM213.333 54.814v768h426.667v-170.667h170.667l0.043-597.333h-597.376zM512 268.105l-85.333 85.333-128-170.667h426.667l-128 256zM512 481.438c0-47.128-38.205-85.333-85.333-85.333s-85.333 38.205-85.333 85.333c0 47.128 38.205 85.333 85.333 85.333s85.333-38.205 85.333-85.333z" />
<glyph unicode="&#xe918;" glyph-name="file-landscape-image" d="M742.997 780.19h-572.331c-47.061 0-85.333-38.315-85.333-85.333v-512c0-47.061 38.272-85.333 85.333-85.333h682.667c47.061 0 85.333 38.272 85.333 85.333v401.664l-195.669 195.669zM213.333 225.524l105.728 169.685 65.152-104.576 150.272 240.981 190.848-306.091h-512zM682.667 524.19v213.333l213.333-213.333h-213.333z" />
<glyph unicode="&#xe919;" glyph-name="file" d="M657.664 865.524h-401.664c-47.061 0-85.333-38.315-85.333-85.333v-682.667c0-47.061 38.272-85.333 85.333-85.333h512c47.061 0 85.333 38.272 85.333 85.333v572.331l-195.669 195.669zM768.043 97.524h-512.043v682.667h341.333v-170.667h170.667l0.043-512z" />
<glyph unicode="&#xe91a;" glyph-name="file-doc" d="M213.333 822.857h426.667v-170.667h170.667v-42.667h85.333v102.997l-195.669 195.669h-486.997c-47.061 0-85.333-38.315-85.333-85.333v-213.333h85.333v213.333zM810.667 54.857h-597.333v42.667h-85.333v-42.667c0-47.061 38.272-85.333 85.333-85.333h597.333c47.061 0 85.333 38.272 85.333 85.333v42.667h-85.333v-42.667zM810.667 438.857h128v85.333h-128c-70.571 0-128-57.429-128-128v-85.333c0-70.571 57.429-128 128-128h128v85.333h-128c-23.509 0-42.667 19.115-42.667 42.667v85.333c0 23.552 19.157 42.667 42.667 42.667zM341.333 353.524c0 94.123-76.544 170.667-170.667 170.667h-85.333v-341.333h85.333c94.123 0 170.667 76.544 170.667 170.667zM170.667 438.857c47.061 0 85.333-38.315 85.333-85.333 0-47.061-38.272-85.333-85.333-85.333v170.667zM384 396.19v-85.333c0-70.571 57.429-128 128-128s128 57.429 128 128v85.333c0 70.571-57.429 128-128 128s-128-57.429-128-128zM554.667 396.19v-85.333c0-23.552-19.157-42.667-42.667-42.667s-42.667 19.115-42.667 42.667v85.333c0 23.552 19.157 42.667 42.667 42.667s42.667-19.115 42.667-42.667z" />
<glyph unicode="&#xe91b;" glyph-name="file-pdf" d="M213.333 822.857h426.667v-170.667h170.667v-42.667h85.333v102.997l-195.669 195.669h-486.997c-47.061 0-85.333-38.315-85.333-85.333v-213.333h85.333v213.333zM810.667 54.857h-597.333v42.667h-85.333v-42.667c0-47.061 38.272-85.333 85.333-85.333h597.333c47.061 0 85.333 38.272 85.333 85.333v42.667h-85.333v-42.667zM384 524.19v-341.333h85.333c94.123 0 170.667 76.544 170.667 170.667s-76.544 170.667-170.667 170.667h-85.333zM554.667 353.524c0-47.061-38.272-85.333-85.333-85.333v170.667c47.061 0 85.333-38.315 85.333-85.333zM938.667 438.857v85.333h-170.667c-47.061 0-85.333-38.315-85.333-85.333v-256h85.333v128h128v85.333h-128v42.667h170.667zM170.667 268.19h42.667c70.571 0 128 57.429 128 128s-57.429 128-128 128h-128v-341.333h85.333v85.333zM170.667 438.857h42.667c23.509 0 42.667-19.115 42.667-42.667s-19.157-42.667-42.667-42.667h-42.667v85.333z" />
<glyph unicode="&#xe91c;" glyph-name="file-txt" d="M213.333 822.857h426.667v-170.667h170.667v-42.667h85.333v102.997l-195.669 195.669h-486.997c-47.061 0-85.333-38.315-85.333-85.333v-213.333h85.333v213.333zM810.667 54.857h-597.333v42.667h-85.333v-42.667c0-47.061 38.272-85.333 85.333-85.333h597.333c47.061 0 85.333 38.272 85.333 85.333v42.667h-85.333v-42.667zM128 182.857h85.333v256h85.333v85.333h-256v-85.333h85.333zM682.667 524.19v-85.333h85.333v-256h85.333v256h85.333v85.333zM546.133 524.19l-52.651-87.723-52.608 87.723h-99.541l102.4-170.667-102.4-170.667h99.541l52.608 87.723 52.651-87.723h99.541l-102.443 170.667 102.443 170.667z" />
<glyph unicode="&#xe91d;" glyph-name="file-xls" d="M219.008 822.857h426.667v-170.667h170.667v-42.667h85.333v102.997l-195.669 195.669h-486.997c-47.061 0-85.333-38.315-85.333-85.333v-213.333h85.333v213.333zM816.341 54.857h-597.333v42.667h-85.333v-42.667c0-47.061 38.272-85.333 85.333-85.333h597.333c47.061 0 85.333 38.272 85.333 85.333v42.667h-85.333v-42.667zM432.341 524.19v-341.333h213.333v85.333h-128v256zM795.008 438.857h149.333v85.333h-149.333c-58.795 0-106.667-47.872-106.667-106.667s47.872-106.667 106.667-106.667h42.667c11.776 0 21.333-9.6 21.333-21.333s-9.557-21.333-21.333-21.333h-149.333v-85.333h149.333c58.795 0 106.667 47.872 106.667 106.667s-47.872 106.667-106.667 106.667h-42.667c-11.776 0-21.333 9.6-21.333 21.333s9.557 21.333 21.333 21.333zM184.875 182.857l52.608 87.723 52.651-87.723h99.541l-102.443 170.667 102.443 170.667h-99.541l-52.651-87.723-52.608 87.723h-99.541l102.4-170.667-102.4-170.667z" />
<glyph unicode="&#xe91e;" glyph-name="file-zip" d="M700.331 908.19h-486.997c-47.061 0-85.333-38.315-85.333-85.333v-213.333h85.333v213.333h426.667v-170.667h170.667v-42.667h85.333v102.997l-195.669 195.669zM810.667 54.857h-597.333v42.667h-85.333v-42.667c0-47.061 38.272-85.333 85.333-85.333h597.333c47.061 0 85.333 38.272 85.333 85.333v42.667h-85.333v-42.667zM426.667 268.19v-85.333h170.667v85.333h-42.667v170.667h42.667v85.333h-170.667v-85.333h42.667v-170.667zM768 524.19h-128v-341.333h85.333v85.333h42.667c70.571 0 128 57.429 128 128s-57.429 128-128 128zM768 353.524h-42.667v85.333h42.667c23.509 0 42.667-19.115 42.667-42.667s-19.157-42.667-42.667-42.667zM135.168 249.204c-8.747-13.099-9.557-29.909-2.133-43.776 7.424-13.909 21.888-22.571 37.632-22.571h213.333v85.333h-133.589l126.421 189.653c8.747 13.099 9.557 29.909 2.133 43.776-7.424 13.909-21.888 22.571-37.632 22.571h-213.333v-85.333h133.589l-126.421-189.653z" />
<glyph unicode="&#xe91f;" glyph-name="file-2" d="M657.664 865.524h-401.664c-47.061 0-85.333-38.315-85.333-85.333v-682.667c0-47.061 38.272-85.333 85.333-85.333h512c47.061 0 85.333 38.272 85.333 85.333v572.331l-195.669 195.669zM298.667 438.857h341.333v-85.333h-341.333v85.333zM725.333 182.857h-426.667v85.333h426.667v-85.333zM597.333 609.524v213.333l213.333-213.333h-213.333z" />
<glyph unicode="&#xe920;" glyph-name="file-upload" d="M469.333 677.15v-409.003h85.333v409.003l140.501-140.501 60.331 60.331-243.499 243.499-243.499-243.499 60.331-60.331zM768 182.814v-85.333h-512v85.333h-85.333v-85.333c0-47.019 38.272-85.333 85.333-85.333h512c47.104 0 85.333 38.315 85.333 85.333v85.333h-85.333z" />
<glyph unicode="&#xe921;" glyph-name="files-documents" d="M742.997 950.857h-316.331c-47.061 0-85.333-38.315-85.333-85.333v-597.333c0-47.061 38.272-85.333 85.333-85.333h426.667c47.061 0 85.333 38.272 85.333 85.333v486.997l-195.669 195.669zM682.667 694.857v213.333l213.333-213.333h-213.333zM298.667 822.857h-85.333v-682.667c0-47.061 38.272-85.333 85.333-85.333h512v85.333h-512v682.667zM170.667 694.857h-85.333v-682.667c0-47.061 38.272-85.333 85.333-85.333h512v85.333h-512v682.667z" />
<glyph unicode="&#xe922;" glyph-name="folder-image" d="M853.333 652.19h-341.333l-61.739 80.811c-14.464 28.928-44.032 47.189-76.331 47.189h-245.931c-23.595 0-42.667-19.072-42.667-42.667v-597.333c0-47.104 38.187-85.333 85.333-85.333h682.667c47.104 0 85.333 38.229 85.333 85.333v426.667c0 47.104-38.229 85.333-85.333 85.333zM256 182.857l105.771 169.685 65.152-104.576 150.272 240.981 190.805-306.091h-512z" />
<glyph unicode="&#xe923;" glyph-name="forum-comment" d="M853.248 865.524h-682.667c-47.104 0-85.333-38.187-85.333-85.333v-512c0-47.104 38.229-85.333 85.333-85.333h42.667v-170.667l170.667 170.667h469.291c47.147 0 85.333 38.229 85.333 85.333v512c0.043 47.147-38.144 85.333-85.291 85.333zM554.581 310.857h-298.667v85.333h298.667v-85.333zM767.915 481.524h-512v85.333h512v-85.333zM767.915 652.19h-512v85.333h512v-85.333z" />
<glyph unicode="&#xe924;" glyph-name="forum-comments" d="M383.915 609.524c0 23.467 19.2 42.667 42.667 42.667h384v170.667c0 23.467-19.2 42.667-42.667 42.667h-640c-23.467 0-42.667-19.2-42.667-42.667v-469.333c0-23.467 19.2-42.667 42.667-42.667h42.667v-128l128 128h85.333v298.667zM895.915 566.857h-384c-23.467 0-42.667-19.2-42.667-42.667v-298.667c0-23.467 19.2-42.667 42.667-42.667h213.333l128-128v128h42.667c23.467 0 42.667 19.2 42.667 42.667v298.667c0 23.467-19.2 42.667-42.667 42.667z" />
<glyph unicode="&#xe925;" glyph-name="file-audio" d="M298.667 395.977v-170.667h128l128-85.333v341.333l-128-85.333zM609.707 365.94c12.203-12.416 30.293-38.571 30.293-55.296s-18.091-42.88-30.165-55.168l60.331-60.331c5.632 5.632 55.168 56.875 55.168 115.499s-49.536 109.824-55.168 115.499l-60.459-60.203zM700.331 908.062h-486.997c-47.061 0-85.333-38.272-85.333-85.333v-768c0-47.061 38.272-85.333 85.333-85.333h597.333c47.061 0 85.333 38.272 85.333 85.333v657.664l-195.669 195.669zM213.333 54.729v768h426.667v-170.667h170.667l0.043-597.333h-597.376z" />
<glyph unicode="&#xe926;" glyph-name="health-hospital-sign" d="M853.333 865.524h-682.667c-47.061 0-85.333-38.315-85.333-85.333v-682.667c0-47.061 38.272-85.333 85.333-85.333h682.667c47.104 0 85.333 38.272 85.333 85.333v682.667c0 47.019-38.229 85.333-85.333 85.333zM725.333 225.524h-170.667v128h-85.333v-128h-170.667v426.667h170.667v-128h85.333v128h170.667v-426.667z" />
<glyph unicode="&#xe927;" glyph-name="home" d="M926.165 426.356l-384 384c-16.683 16.683-43.648 16.683-60.331 0l-384-384c-12.203-12.203-15.872-30.549-9.259-46.507 6.571-15.957 22.187-26.325 39.424-26.325h85.333v-341.333h213.333v213.333h170.667v-213.333h213.333v341.333h85.333c17.237 0 32.853 10.368 39.424 26.325 6.613 15.957 2.944 34.304-9.259 46.507z" />
<glyph unicode="&#xe928;" glyph-name="hourglass" d="M213.333 147.529v-92.672c0-23.552 19.115-42.667 42.667-42.667h512c23.552 0 42.667 19.115 42.667 42.667v92.672c0 33.707-13.653 66.645-37.504 90.496l-200.832 200.832 200.832 200.832c24.192 24.192 37.504 56.32 37.504 90.581v92.587c0 23.552-19.115 42.667-42.667 42.667h-512c-23.552 0-42.667-19.115-42.667-42.667v-92.587c0-34.219 13.312-66.347 37.504-90.496l200.832-200.917-200.832-200.832c-23.851-23.808-37.504-56.789-37.504-90.496zM384 737.566h256l-128-128-128 128z" />
<glyph unicode="&#xe929;" glyph-name="interface-alert-circle" d="M512 865.524c-235.264 0-426.667-191.403-426.667-426.667 0-235.307 191.403-426.667 426.667-426.667s426.667 191.36 426.667 426.667c0 235.264-191.403 426.667-426.667 426.667zM469.333 694.857h85.333v-298.667h-85.333v298.667zM512 214.857c-29.44 0-53.333 23.851-53.333 53.333 0 29.44 23.893 53.333 53.333 53.333s53.333-23.893 53.333-53.333c0-29.483-23.893-53.333-53.333-53.333z" />
<glyph unicode="&#xe92a;" glyph-name="interface-alert-triangle" d="M934.187 73.929l-384 768c-14.464 28.885-61.867 28.885-76.331 0l-384-768c-6.571-13.227-5.931-28.885 1.877-41.557 7.765-12.544 21.461-20.181 36.267-20.181h768c14.805 0 28.501 7.68 36.309 20.224 7.765 12.629 8.448 28.245 1.877 41.515zM469.333 524.19h85.333v-256h-85.333v256zM512 129.524c-29.44 0-53.333 23.851-53.333 53.333 0 29.44 23.893 53.333 53.333 53.333s53.333-23.893 53.333-53.333c0-29.483-23.893-53.333-53.333-53.333z" />
<glyph unicode="&#xe92b;" glyph-name="interface-information" d="M512 865.524c-235.264 0-426.667-191.445-426.667-426.667 0-235.307 191.403-426.667 426.667-426.667s426.667 191.36 426.667 426.667c0 235.221-191.403 426.667-426.667 426.667zM512 662.814c29.44 0 53.333-23.893 53.333-53.333 0-29.483-23.893-53.333-53.333-53.333s-53.333 23.893-53.333 53.376c0 29.44 23.893 53.291 53.333 53.291zM640 225.524h-256v85.333h85.333v128h-42.667v85.333h85.333c23.595 0 42.667-19.115 42.667-42.667v-170.667h85.333v-85.333z" />
<glyph unicode="&#xe92c;" glyph-name="interface-question-mark" d="M512 865.524c-235.264 0-426.667-191.445-426.667-426.667 0-235.307 191.403-426.667 426.667-426.667s426.667 191.36 426.667 426.667c0 235.221-191.403 426.667-426.667 426.667zM512 172.19c-29.44 0-53.333 23.851-53.333 53.333 0 29.44 23.893 53.333 53.333 53.333s53.333-23.893 53.333-53.333c0-29.483-23.893-53.333-53.333-53.333zM554.667 358.857v-48h-85.333v128h42.667c47.104 0 85.333 38.272 85.333 85.333 0 47.104-38.229 85.333-85.333 85.333s-85.333-38.229-85.333-85.333h-85.333c0 94.080 76.587 170.667 170.667 170.667s170.667-76.587 170.667-170.667c0-79.403-54.485-146.304-128-165.333z" />
<glyph unicode="&#xe92d;" glyph-name="key" d="M865.792 508.66l60.331 60.331-105.557 105.6 60.288 60.288-90.496 90.496-404.864-404.949c-25.472 11.392-53.12 17.664-81.835 18.347l-4.907 0.085c-114.944 0-210.645-93.44-213.333-208.256-1.365-57.003 19.541-111.061 58.88-152.32s92.373-64.725 149.333-66.048l5.163-0.043c114.773 0 210.389 93.397 213.12 208.256 0.981 41.045-9.984 80.427-30.677 114.773l158.293 158.336 105.557-105.643 60.373 60.331-105.557 105.643 60.331 60.373 105.557-105.6zM298.667 140.19c-47.104 0-85.376 38.229-85.333 85.333 0 47.104 38.229 85.333 85.291 85.333 47.147 0 85.333-38.229 85.376-85.333-0.043-47.147-38.229-85.333-85.333-85.333z" />
<glyph unicode="&#xe92e;" glyph-name="list-menu" d="M250.435 833.118h780v-109.565h-780zM250.435 389.64v109.565h780v-109.565zM250.435 55.727v109.565h780v-109.565zM83.478 183.553c20.87 0 38.696-6.957 53.478-20.87s22.174-31.304 22.174-52.174c0-20.87-7.391-38.261-22.174-52.174s-32.609-20.87-53.478-20.87c-20.87 0-38.261 6.957-52.174 20.87s-20.87 31.304-20.87 52.174c0 20.87 6.957 38.261 20.87 52.174s31.304 20.87 52.174 20.87zM83.478 861.814c22.609 0 42.174-7.826 58.696-23.478s24.783-35.652 24.783-60c0-24.348-8.261-44.348-24.783-60s-36.087-23.478-58.696-23.478c-22.609 0-42.174 7.826-58.696 23.478s-24.783 35.652-24.783 60c0 24.348 8.261 44.348 24.783 60s36.087 23.478 58.696 23.478zM83.478 527.9c22.609 0 42.174-7.826 58.696-23.478s24.783-35.652 24.783-60c0-24.348-8.261-44.348-24.783-60s-36.087-23.478-58.696-23.478c-22.609 0-42.174 7.826-58.696 23.478s-24.783 35.652-24.783 60c0 24.348 8.261 44.348 24.783 60s36.087 23.478 58.696 23.478z" />
<glyph unicode="&#xe92f;" glyph-name="location-map" d="M834.347 104.734c11.861 7.893 18.987 21.205 18.987 35.456v128h-85.333v-105.173l-170.667-113.792v517.632c0 12.971-5.888 25.216-16 33.323l-213.333 170.667c-6.144 4.864-15.787 8.661-25.131 9.003-8.96 0.341-18.859-2.603-25.216-6.827l-256-170.667c-11.861-7.936-18.987-21.205-18.987-35.499v-597.333c0-15.744 8.661-30.208 22.528-37.632 6.315-3.371 13.227-5.035 20.139-5.035 8.277 0 16.512 2.432 23.68 7.211l230.059 153.344 188.971-151.168c7.68-6.229 17.109-9.387 26.624-9.387 6.315 0 12.587 1.323 18.475 4.181l261.205 173.696zM298.667 163.017l-170.667-113.792v494.805l170.667 113.792v-494.805zM981.333 694.857c0 94.293-76.416 170.667-170.667 170.667s-170.667-76.373-170.667-170.667c0-128 170.667-341.333 170.667-341.333s170.667 213.333 170.667 341.333zM725.333 694.857c0 47.104 38.229 85.333 85.333 85.333s85.333-38.229 85.333-85.333-38.229-85.333-85.333-85.333-85.333 38.229-85.333 85.333z" />
<glyph unicode="&#xe930;" glyph-name="location-pin-star" d="M512 865.524c-188.501 0-341.333-152.832-341.333-341.333s341.333-512 341.333-512 341.333 323.499 341.333 512-152.832 341.333-341.333 341.333zM640 310.857l-128 106.667-128-106.667 42.667 170.667-128 85.333h160l53.333 170.667 53.333-170.667h160l-128-85.333 42.667-170.667z" />
<glyph unicode="&#xe931;" glyph-name="location-pin" d="M512 865.524c-164.949 0-298.667-133.717-298.667-298.667 0-213.333 298.667-554.667 298.667-554.667s298.667 341.333 298.667 554.667c0 164.949-133.717 298.667-298.667 298.667zM512 460.19c-58.88 0-106.667 47.744-106.667 106.667s47.787 106.667 106.667 106.667c58.923 0 106.667-47.744 106.667-106.667s-47.744-106.667-106.667-106.667z" />
<glyph unicode="&#xe932;" glyph-name="lock" d="M725.333 481.524v170.667c0 117.632-95.744 213.333-213.333 213.333-117.675 0-213.333-95.701-213.333-213.333v-170.667c-47.061 0-85.333-38.229-85.333-85.333v-298.667c0-47.061 38.272-85.333 85.333-85.333h426.667c47.061 0 85.333 38.272 85.333 85.333v298.667c0 47.104-38.272 85.333-85.333 85.333zM512 182.857c-35.328 0-64 28.672-64 64s28.672 64 64 64 64-28.672 64-64-28.672-64-64-64zM640 481.524h-256v170.667c0 70.571 57.429 128 128 128s128-57.429 128-128v-170.667z" />
<glyph unicode="&#xe933;" glyph-name="mobile-phone" d="M725.333 865.524h-426.667c-47.061 0-85.333-38.272-85.333-85.333v-682.667c0-47.104 38.272-85.333 85.333-85.333h426.667c47.061 0 85.333 38.229 85.333 85.333v682.667c0 47.061-38.272 85.333-85.333 85.333zM341.333 140.19c-23.552 0-42.667 19.072-42.667 42.667s19.115 42.667 42.667 42.667 42.667-19.072 42.667-42.667-19.115-42.667-42.667-42.667zM341.333 310.857c-23.552 0-42.667 19.072-42.667 42.667s19.115 42.667 42.667 42.667 42.667-19.072 42.667-42.667-19.115-42.667-42.667-42.667zM512 140.19c-23.552 0-42.667 19.072-42.667 42.667s19.115 42.667 42.667 42.667 42.667-19.072 42.667-42.667-19.115-42.667-42.667-42.667zM512 310.857c-23.552 0-42.667 19.072-42.667 42.667s19.115 42.667 42.667 42.667 42.667-19.072 42.667-42.667-19.115-42.667-42.667-42.667zM682.667 140.19c-23.552 0-42.667 19.072-42.667 42.667s19.115 42.667 42.667 42.667 42.667-19.072 42.667-42.667-19.115-42.667-42.667-42.667zM682.667 310.857c-23.552 0-42.667 19.072-42.667 42.667s19.115 42.667 42.667 42.667 42.667-19.072 42.667-42.667-19.115-42.667-42.667-42.667zM725.333 524.19h-426.667v256h426.667v-256z" />
<glyph unicode="&#xe934;" glyph-name="money" d="M85.333 737.524v-597.333h853.333v597.333h-853.333zM384 225.524l-213.333 213.333v213.333h469.333l213.333-213.333v-213.333h-469.333zM640 438.857c0-70.692-57.308-128-128-128s-128 57.308-128 128c0 70.692 57.308 128 128 128s128-57.308 128-128z" />
<glyph unicode="&#xe935;" glyph-name="office-hours-1" d="M109.696 627.87c-60.501 0-109.696-49.28-109.696-109.739v-36.608h73.173v36.608c0 20.139 16.427 36.523 36.565 36.523 20.181 0 36.565-16.427 36.565-36.523 0-35.755-70.357-128.341-135.595-193.579-10.453-10.496-13.568-26.24-7.936-39.893 5.675-13.653 18.987-22.528 33.792-22.528h182.827v73.088h-99.541c45.525 53.675 99.584 128.811 99.584 182.912 0 60.459-49.237 109.739-109.739 109.739zM438.827 591.262c0 16.085-10.496 30.251-25.941 34.987-15.36 4.693-32.043-1.323-41.045-14.72l-146.261-219.435c-7.509-11.221-8.149-25.685-1.835-37.547 6.4-11.904 18.773-19.285 32.256-19.285h109.696v-73.173h73.131v73.173h36.565v73.131h-36.565v182.869zM365.696 408.393h-41.387l41.387 62.037v-62.037zM1017.728 611.7c-6.784 10.112-18.133 16.043-30.293 16.043h-182.827v-73.045h128.853l-116.992-292.608h78.763l126.251 315.563c4.437 11.221 3.029 24.064-3.755 34.048zM511.787 225.524h78.805l175.531 438.827h-78.805z" />
<glyph unicode="&#xe936;" glyph-name="office-hours-2" d="M274.304 475.38h73.173v36.608c0 20.181 16.427 36.565 36.523 36.565 20.181 0 36.565-16.384 36.565-36.565 0-35.712-70.357-128.299-135.595-193.621-10.453-10.496-13.568-26.155-7.936-39.851 5.675-13.696 18.987-22.571 33.792-22.571h182.827v73.088h-99.541c45.525 53.845 99.584 128.853 99.584 182.912 0 60.501-49.195 109.696-109.696 109.696s-109.696-49.195-109.696-109.696v-36.565zM687.147 620.105c-15.36 4.779-32.043-1.323-41.045-14.677l-146.261-219.435c-7.509-11.221-8.149-25.643-1.835-37.547 6.357-11.861 18.731-19.371 32.256-19.371h109.739v-73.045h73.131v73.045h36.565v73.173h-36.565v182.827c0 16.171-10.496 30.421-25.984 35.029zM640 402.249h-41.387l41.387 62.123v-62.123zM512 950.9c-44.245 0-86.997-6.187-128-16.853v-88.192c40.405 12.757 83.413 19.669 128 19.669 235.264 0 426.667-191.403 426.667-426.667 0-235.307-191.403-426.667-426.667-426.667s-426.667 191.36-426.667 426.667c0 118.997 49.152 226.389 128 303.787v-133.077h85.333v255.957h-256v-85.333h88.661c-81.408-90.581-131.328-210.133-131.328-341.333 0-282.325 229.675-512 512-512s512 229.675 512 512c0 282.325-229.675 512.043-512 512.043z" />
<glyph unicode="&#xe937;" glyph-name="percent-circle" d="M512 865.524c-235.264 0-426.667-191.445-426.667-426.667 0-235.307 191.403-426.667 426.667-426.667s426.667 191.36 426.667 426.667c0 235.221-191.403 426.667-426.667 426.667zM384 652.19c47.104 0 85.333-38.229 85.333-85.333s-38.229-85.333-85.333-85.333-85.333 38.229-85.333 85.333c0 47.104 38.229 85.333 85.333 85.333zM371.499 238.068l-60.331 60.288 341.333 341.333 60.331-60.288-341.333-341.333zM640 225.524c-47.104 0-85.333 38.229-85.333 85.333 0 47.189 38.229 85.333 85.333 85.333s85.333-38.144 85.333-85.333c0-47.104-38.229-85.333-85.333-85.333z" />
<glyph unicode="&#xe938;" glyph-name="person-id-card" d="M853.376 780.19h-682.667c-46.933 0-85.333-38.4-85.333-85.333v-512c0-46.933 38.4-85.333 85.333-85.333h682.667c46.933 0 85.333 38.4 85.333 85.333v512c0 46.933-38.4 85.333-85.333 85.333zM384.043 609.524c47.104 0 85.333-38.229 85.333-85.333s-38.229-85.333-85.333-85.333-85.333 38.229-85.333 85.333 38.229 85.333 85.333 85.333zM256.043 268.19c0 78.549 49.451 128 128 128s128-49.451 128-128h-256zM768.043 268.19h-170.667v85.333h170.667v-85.333zM768.043 396.19h-170.667v85.333h170.667v-85.333z" />
<glyph unicode="&#xe939;" glyph-name="places-bank" d="M85.333 97.438h810.709v-85.333h-810.709v85.333zM918.827 602.825l-405.376 256c-13.909 8.789-31.659 8.789-45.568 0l-405.333-256c-16.043-10.112-23.467-29.653-18.176-47.872 5.248-18.304 21.973-30.848 40.96-30.848h810.709c18.987 0 35.712 12.544 40.96 30.848 5.291 18.219-2.133 37.76-18.176 47.872zM170.709 481.438h128v-341.333h-128v341.333zM426.709 481.438h128v-341.333h-128v341.333zM682.709 481.438h128v-341.333h-128v341.333z" />
<glyph unicode="&#xe93a;" glyph-name="places-bar" d="M597.333 694.857h-170.667v-68.565c-27.008-30.507-85.333-105.813-85.333-187.435v-384c0-23.552 19.072-42.667 42.667-42.667h256c23.595 0 42.667 19.115 42.667 42.667v384c0 81.621-58.325 156.928-85.333 187.435v68.565zM640 396.19v-170.667h-256v170.667h256zM597.333 737.524v85.333c0 23.552-19.072 42.667-42.667 42.667h-85.333c-23.595 0-42.667-19.115-42.667-42.667v-85.333h170.667z" />
<glyph unicode="&#xe93b;" glyph-name="places-beach" d="M418.219 394.484l79.104-272.683c26.923 6.741 54.827 13.056 83.371 18.901l-80.384 277.205c38.656 44.032 89.6 78.123 150.101 95.659 78.763 22.827 158.976 13.739 227.541-19.157-63.488 212.352-278.016 338.645-491.819 295.936l-12.843 44.373c-6.571 22.656-30.336 35.627-52.864 29.099-22.613-6.571-35.669-30.208-29.099-52.821l13.184-45.483c-196.437-82.091-304.683-299.349-245.845-508.8 40.277 64.512 103.211 115.115 181.973 137.941 60.331 17.536 121.472 16.171 177.579-0.171zM170.667-73.143h810.667v213.333c-469.333 0-810.667-170.667-810.667-213.333z" />
<glyph unicode="&#xe93c;" glyph-name="places-cafe" d="M768 694.9h-42.667v42.667c0 23.509-19.072 42.667-42.667 42.667h-512c-23.595 0-42.667-19.157-42.667-42.667v-341.333c0-63.531 20.053-122.283 53.973-170.667h488.832c26.155 37.419 44.331 80.811 51.115 128h46.080c94.080 0 170.667 76.544 170.667 170.667 0 94.080-76.587 170.667-170.667 170.667zM768 438.857h-42.667v170.667h42.667c47.104 0 85.333-38.272 85.333-85.333 0-47.019-38.229-85.333-85.333-85.333zM85.333 182.857h682.667v-85.333h-682.667v85.333z" />
<glyph unicode="&#xe93d;" glyph-name="places-factory" d="M725.333 822.857c-22.955 0-43.691-9.173-59.008-23.893-21.803 39.467-63.36 66.56-111.659 66.56s-89.856-27.093-111.659-66.56c-15.317 14.72-36.053 23.893-59.008 23.893-47.104 0-85.333-38.229-85.333-85.333s38.229-85.333 85.333-85.333c22.955 0 43.691 9.131 59.008 23.893 21.803-39.509 63.36-66.56 111.659-66.56s89.856 27.051 111.659 66.56c15.317-14.763 36.053-23.893 59.008-23.893 47.104 0 85.333 38.229 85.333 85.333s-38.229 85.333-85.333 85.333zM896 438.857h-640v149.333c0 13.397-6.315 26.069-17.067 34.133l-85.333 64c-12.928 9.685-30.208 11.264-44.672 4.011-14.464-7.211-23.595-21.973-23.595-38.144v-597.333c0-23.595 19.115-42.667 42.667-42.667h768c23.552 0 42.667 19.072 42.667 42.667v341.333c0 23.552-19.115 42.667-42.667 42.667zM426.667 97.524h-128v85.333h128v-85.333zM426.667 268.19h-128v85.333h128v-85.333zM640 97.524h-128v85.333h128v-85.333zM640 268.19h-128v85.333h128v-85.333zM853.333 97.524h-128v85.333h128v-85.333zM853.333 268.19h-128v85.333h128v-85.333z" />
<glyph unicode="&#xe93e;" glyph-name="places-florist" d="M788.181 251.209c-8.064 10.667-20.693 16.981-34.091 16.981h-484.181c-13.397 0-25.984-6.315-34.048-16.981s-10.624-24.533-6.955-37.419l60.971-213.333c5.205-18.304 21.931-30.933 40.96-30.933h362.283c19.072 0 35.797 12.629 41.003 30.933l60.971 213.333c3.712 12.885 1.152 26.752-6.912 37.419zM391.595 567.625c0.811-2.475 1.323-5.035 2.261-7.339-30.805-12.885-52.523-43.264-52.523-78.763 0-47.104 38.229-85.333 85.333-85.333 15.616 0 30.080 4.523 42.667 11.819v-97.152h85.333v97.152c12.587-7.296 27.051-11.819 42.667-11.819 47.104 0 85.333 38.229 85.333 85.333 0 35.499-21.717 65.877-52.523 78.763 0.939 2.347 1.408 4.907 2.304 7.339 53.973-4.48 92.885 37.547 92.885 84.565 0 47.104-38.229 85.333-85.333 85.333-16.128 0-31.019-4.736-43.904-12.501 7.808 54.613-34.389 97.835-84.096 97.835-49.451 0-91.947-42.923-84.096-97.835-12.8 7.765-27.776 12.501-43.904 12.501-47.104 0-85.333-38.229-85.333-85.333 0-46.891 38.784-89.045 92.928-84.565zM512 694.857c47.104 0 85.333-38.229 85.333-85.333s-38.229-85.333-85.333-85.333-85.333 38.229-85.333 85.333 38.229 85.333 85.333 85.333z" />
<glyph unicode="&#xe93f;" glyph-name="places-gas-station" d="M1015.467 797.257l-68.267 51.2-128-170.667c-5.547-7.381-8.533-16.341-8.533-25.6v-405.333l-42.667-32v-106.667l110.933 83.2c10.752 8.064 17.067 20.736 17.067 34.133v324.779l71.851-23.936 27.008 80.981-97.451 32.469 118.059 157.44zM725.333 780.19c0 70.571-57.429 128-128 128h-341.333c-70.571 0-128-57.429-128-128v-768c0-23.595 19.115-42.667 42.667-42.667h512c23.552 0 42.667 19.072 42.667 42.667v768zM554.667 396.19h-170.667v-42.667h128v-85.333h-128v-128h-85.333v256c0 47.104 38.272 85.333 85.333 85.333h170.667v-85.333zM640 652.19h-426.667v128c0 23.595 19.072 42.667 42.667 42.667h341.333c23.595 0 42.667-19.072 42.667-42.667v-128z" />
<glyph unicode="&#xe940;" glyph-name="places-hotel" d="M167.083 792.99l43.605-99.541h130.645l-104.533-84.821 34.816-114.304-104.533 78.635-104.533-78.635 34.816 114.304-104.533 84.821h130.688zM515.541 920.99l43.563-99.541h130.645l-104.533-84.821 34.901-114.304-104.576 78.592-104.491-78.592 34.731 114.304-104.533 84.821h130.731zM849.707 792.99l43.648-99.541h130.645l-104.533-84.821 34.773-114.304-104.533 78.635-104.533-78.635 34.859 114.304-104.491 84.821h130.645zM554.667 524.19v85.333h-85.333v-85.333h-128v-597.333h341.333v597.333h-128zM554.667 12.19h-85.333v85.333h85.333v-85.333zM554.667 182.857h-85.333v85.333h85.333v-85.333zM554.667 353.524h-85.333v85.333h85.333v-85.333zM85.333 225.524h213.333v-298.667h-213.333v298.667zM725.333 225.524h213.333v-298.667h-213.333v298.667z" />
<glyph unicode="&#xe941;" glyph-name="places-library-book" d="M768 780.148h-170.667c-11.349 0-22.144-4.48-30.165-12.501l-55.168-55.125-55.168 55.168c-8.021 7.979-18.816 12.459-30.165 12.459h-170.667c-23.595 0-42.667-19.115-42.667-42.667v-384c0-23.552 19.072-42.667 42.667-42.667h153.003l72.832-72.832c8.32-8.32 19.243-12.459 30.165-12.459s21.845 4.181 30.165 12.501l72.832 72.832h153.003c23.595 0 42.667 19.115 42.667 42.667v384c0 23.509-19.072 42.624-42.667 42.624zM512 54.857c-9.003 0-18.005 2.816-25.6 8.533l-159.317 119.467h-199.083c-23.595 0-42.667 19.115-42.667 42.667v469.333h85.333v-426.667h170.667c9.259 0 18.219-2.987 25.6-8.533l145.067-108.8 145.067 108.8c7.381 5.547 16.341 8.533 25.6 8.533h170.667v426.667h85.333v-469.333c0-23.552-19.072-42.667-42.667-42.667h-199.083l-159.317-119.467c-7.595-5.717-16.597-8.533-25.6-8.533z" />
<glyph unicode="&#xe942;" glyph-name="places-map" d="M873.472 860.446c-13.867 7.424-30.72 6.613-43.776-2.091l-230.059-153.387-188.971 151.211c-14.507 11.605-34.901 12.459-50.347 2.176l-256-170.667c-11.861-7.893-18.987-21.248-18.987-35.499v-597.333c0-15.744 8.661-30.208 22.528-37.632 13.824-7.424 30.677-6.571 43.776 2.133l230.059 153.344 188.971-151.168c7.765-6.229 17.195-9.344 26.667-9.344 8.235 0 16.469 2.347 23.68 7.211l256 170.667c11.861 7.893 18.987 21.205 18.987 35.456v597.333c0 15.744-8.661 30.208-22.528 37.589zM298.667 481.524c-23.552 0-42.667 19.115-42.667 42.667s19.115 42.667 42.667 42.667 42.667-19.115 42.667-42.667c0-23.552-19.115-42.667-42.667-42.667zM426.667 353.524c-23.552 0-42.667 19.115-42.667 42.667s19.115 42.667 42.667 42.667 42.667-19.115 42.667-42.667c0-23.552-19.115-42.667-42.667-42.667zM747.947 376.137l-45.269-45.269-62.677 62.72-62.72-62.72-45.227 45.269 62.72 62.72-62.72 62.677 45.227 45.269 62.72-62.72 62.72 62.72 45.269-45.269-62.763-62.677 62.72-62.72z" />
<glyph unicode="&#xe943;" glyph-name="places-park" d="M1001.899 301.342l-148.565 222.848h65.707c7.979 0 15.232 4.437 18.944 11.477 3.669 7.040 3.115 15.573-1.451 22.016l-125.867 179.84h29.483c7.381 0 14.251 3.797 18.133 10.112 3.883 6.272 4.267 14.123 0.939 20.736l-72.149 144.299c-3.627 7.253-10.965 11.776-19.072 11.776s-15.445-4.523-19.072-11.776l-72.149-144.299c-3.328-6.613-2.944-14.464 0.939-20.736 3.883-6.315 10.752-10.112 18.133-10.112h29.483l-125.824-179.797c-4.565-6.443-5.12-14.976-1.451-22.016 3.669-7.083 10.965-11.52 18.901-11.52h65.707l-85.333-128h85.333v-128h42.667v-298.667h85.333v298.667h173.44c7.893 0 15.104 4.352 18.816 11.264 3.755 6.912 3.328 15.36-1.024 21.888zM576 353.524h-469.333c-35.285 0-64-28.715-64-64v-170.667c0-35.285 28.715-64 64-64h21.333v-85.333h85.333v85.333h256v-85.333h85.333v85.333h21.333c35.285 0 64 28.715 64 64v170.667c0 35.285-28.715 64-64 64zM554.667 182.857h-426.667v85.333h426.667v-85.333z" />
<glyph unicode="&#xe944;" glyph-name="places-pet-zoo" d="M768 225.524c0-117.821-114.615-213.333-256-213.333s-256 95.513-256 213.333c0 117.821 114.615 213.333 256 213.333s256-95.513 256-213.333zM256 524.19c0 47.104-38.229 85.333-85.333 85.333s-85.333-38.229-85.333-85.333v-85.333c0-47.104 38.187-85.333 85.333-85.333s85.333 38.229 85.333 85.333v85.333zM853.333 609.524c-47.104 0-85.333-38.229-85.333-85.333v-85.333c0-47.104 38.229-85.333 85.333-85.333s85.333 38.229 85.333 85.333v85.333c0 47.104-38.229 85.333-85.333 85.333zM384 524.19c47.104 0 85.333 38.229 85.333 85.333v85.333c0 47.104-38.229 85.333-85.333 85.333s-85.333-38.229-85.333-85.333v-85.333c0-47.104 38.229-85.333 85.333-85.333zM640 524.19c47.104 0 85.333 38.229 85.333 85.333v85.333c0 47.104-38.229 85.333-85.333 85.333s-85.333-38.229-85.333-85.333v-85.333c0-47.104 38.229-85.333 85.333-85.333z" />
<glyph unicode="&#xe945;" glyph-name="places-restaurant" d="M670.165 853.022c-12.245 12.203-30.549 15.915-46.507 9.259-15.915-6.571-26.325-22.187-26.325-39.424v-810.667h85.333v256h85.333c23.595 0 42.667 19.072 42.667 42.667 0 397.056-134.741 536.405-140.501 542.165zM426.667 609.524c0-31.445-17.28-58.667-42.667-73.515v329.515h-85.333v-329.515c-25.387 14.848-42.667 42.069-42.667 73.515v256h-85.333v-256c0-79.275 54.571-145.536 128-164.608v-432.725h85.333v432.725c73.429 19.115 128 85.333 128 164.608v256h-85.333v-256z" />
<glyph unicode="&#xe946;" glyph-name="places-school" d="M957.739 647.497l-426.667 213.333c-11.989 6.016-26.155 6.016-38.187 0l-426.667-213.333c-8.619-4.267-15.147-11.691-18.987-19.755-2.603-5.205-4.565-14.037-4.565-18.432v-245.973c0-23.552 19.115-42.667 42.667-42.667s42.667 19.115 42.667 42.667v196.181l384.64-160.213 441.899 170.411c15.573 6.272 26.069 21.035 26.752 37.845 0.725 16.811-8.533 32.384-23.552 39.936zM512 310.644c-5.589 0-11.179 1.109-16.427 3.285l-282.24 117.589v-128.555c0-16.171 9.131-30.933 23.595-38.187 73.173-36.565 148.608-81.835 275.072-81.835 126.421 0 202.027 45.312 275.072 81.835 14.464 7.211 23.595 22.016 23.595 38.144v119.509l-283.349-108.971c-4.949-1.835-10.112-2.816-15.317-2.816zM85.333 267.977c-23.552 0-42.667-19.115-42.667-42.667v-85.333c0-23.552 19.115-42.667 42.667-42.667s42.667 19.115 42.667 42.667v85.333c0 23.552-19.115 42.667-42.667 42.667z" />
<glyph unicode="&#xe947;" glyph-name="places-shop" d="M938.667 524.19h-145.92l-158.379 277.163-74.069-42.325 134.187-234.837h-364.971l134.187 234.837-74.069 42.325-158.379-277.163h-145.92v-85.333h853.333zM145.92 396.19l68.395-307.968c4.352-19.499 21.675-33.365 41.685-33.365h512c20.011 0 37.333 13.909 41.685 33.408l68.395 307.925h-732.16z" />
<glyph unicode="&#xe948;" glyph-name="places-spa" d="M683.563 554.356c14.251-39.765 23.637-80.939 23.637-121.6 0-100.779-55.723-177.152-107.563-226.645 55.851-1.408 128.853 9.771 184.533 65.451 103.68 103.68 107.264 321.835 107.264 321.835s-107.819-1.963-207.872-39.040zM340.779 554.356c-100.053 37.077-207.872 39.040-207.872 39.040s3.584-218.155 107.264-321.835c55.637-55.68 128.683-66.859 184.533-65.451-51.883 49.493-107.563 125.867-107.563 226.645 0 40.661 9.387 81.835 23.637 121.6zM663.893 443.593c0 146.645-151.723 303.445-151.723 303.445s-151.723-156.8-151.723-303.445c0-95.445 64.171-162.859 109.056-198.443v-232.96h85.333v232.96c44.885 35.584 109.056 102.997 109.056 198.443z" />
<glyph unicode="&#xe949;" glyph-name="places-theatre" d="M400.213 713.972c28.245-28.203 103.552-61.781 197.12-61.781 54.272 0 96.341 10.368 128 22.485v148.181c0 17.109-10.368 32.512-26.155 39.168-15.744 6.613-34.091 3.115-46.421-8.789-3.072-2.987-77.099-73.045-226.091-73.045s-222.976 70.059-225.835 72.832c-12.203 12.245-30.507 15.915-46.464 9.259-15.915-6.571-26.368-22.187-26.368-39.424v-384c0-83.072 62.421-143.915 129.28-185.344-0.341 4.949-1.28 9.6-1.28 14.677v386.048c0.043 75.264 91.008 112.939 144.213 59.733zM869.845 691.358c-15.744 6.613-34.176 3.115-46.421-8.789-3.072-2.987-77.099-73.045-226.091-73.045s-222.976 70.059-225.792 72.832c-12.245 12.245-30.507 15.915-46.507 9.259-15.915-6.613-26.325-22.187-26.325-39.424v-384c0-168.875 257.749-246.144 287.104-254.421 3.797-1.067 7.68-1.579 11.52-1.579 3.883 0 7.765 0.512 11.563 1.579 29.397 8.277 287.104 85.547 287.104 254.421v384c0 17.109-10.368 32.512-26.155 39.168zM426.667 396.19c0 23.595 19.072 42.667 42.667 42.667s42.667-19.072 42.667-42.667-19.072-42.667-42.667-42.667-42.667 19.072-42.667 42.667zM597.333 140.19c-93.909 0-128 76.544-128 128h42.667l42.667 0.512c0.512-19.669 8.363-43.179 42.667-43.179s42.155 23.509 42.667 43.179l85.333-0.512c0-51.456-34.048-128-128-128zM725.333 353.524c-23.595 0-42.667 19.072-42.667 42.667s19.072 42.667 42.667 42.667 42.667-19.072 42.667-42.667-19.072-42.667-42.667-42.667z" />
<glyph unicode="&#xe94a;" glyph-name="places-tower" d="M810.667 353.524h-682.667v-85.333h161.195l-75.861-341.333h172.587l83.413 107.264 83.413-107.264h172.587l-75.861 341.333h161.195v85.333zM307.029-35.554l48.085 216.491 60.16-77.355-108.245-139.136zM523.392 103.582l60.16 77.355 48.085-216.491-108.245 139.136zM469.333 173.129l-73.941 95.061h147.883l-73.941-95.061zM213.333 694.857h512v-298.667h-512v298.667zM213.333 737.524h512c18.56 0 34.987 11.989 40.619 29.611 5.675 17.664-0.725 36.992-15.829 47.744l-256 118.272c-14.848 10.581-34.773 10.581-49.579 0l-256-118.272c-15.104-10.709-21.504-30.080-15.829-47.744 5.675-17.621 22.059-29.611 40.619-29.611z" />
<glyph unicode="&#xe94b;" glyph-name="police" d="M512 822.857l-298.667-85.333 42.667-85.333c0 0 0-25.259 0-42.667 0-18.091 16.981-34.816 45.739-48.64-1.877-12.288-3.072-24.619-3.072-36.693 0-117.632 95.701-213.333 213.333-213.333s213.333 95.701 213.333 213.333c0 12.075-1.195 24.405-3.072 36.693 28.757 13.824 45.739 30.549 45.739 48.64 0 36.992 0 42.155 0 42.667l42.667 85.333-298.667 85.333zM426.667 737.524h170.667v-85.333l-85.333-42.667-85.333 42.667v85.333zM512 396.19c-70.571 0-128 57.429-128 128 0 3.669 0.811 7.552 1.109 11.307 37.419-7.125 80.683-11.307 126.891-11.307s89.472 4.181 126.891 11.307c0.299-3.755 1.109-7.637 1.109-11.307 0-70.571-57.429-128-128-128zM512 268.19c-200.96 0-341.333-105.259-341.333-256v-85.333h682.667v85.333c0 150.741-140.373 256-341.333 256zM512-30.476c-23.595 0-42.667 19.072-42.667 42.667s19.072 42.667 42.667 42.667 42.667-19.072 42.667-42.667-19.072-42.667-42.667-42.667zM512 97.524c-23.595 0-42.667 19.072-42.667 42.667s19.072 42.667 42.667 42.667 42.667-19.072 42.667-42.667-19.072-42.667-42.667-42.667z" />
<glyph unicode="&#xe94c;" glyph-name="post" d="M581.205 309.364l-301.653-60.331 60.331 301.696 229.461 229.461h-398.677c-47.061 0-85.333-38.315-85.333-85.333v-597.333c0-47.061 38.272-85.333 85.333-85.333h597.333c47.061 0 85.333 38.272 85.333 85.333v484.011l-272.128-272.171zM418.475 508.617l120.661-120.619-150.827-30.165zM870.997 719.86c33.323 33.323 33.323 87.339 0 120.661s-87.339 33.323-120.661 0l-271.531-271.531 120.704-120.704 271.488 271.573z" />
<glyph unicode="&#xe94d;" glyph-name="real-estate-pin" d="M576 332.19c0-35.346-28.654-64-64-64s-64 28.654-64 64c0 35.346 28.654 64 64 64s64-28.654 64-64zM926.165 426.356l-384 384c-16.683 16.683-43.648 16.683-60.331 0l-384-384c-12.203-12.203-15.872-30.549-9.259-46.507 6.571-15.957 22.187-26.325 39.424-26.325h42.667v-384h682.667v384h42.667c17.237 0 32.853 10.368 39.424 26.325 6.613 15.957 2.901 34.304-9.259 46.507zM512 54.857c0 0-156.459 152.875-156.459 270.208 0 86.4 70.059 156.459 156.459 156.459s156.459-70.059 156.459-156.459c0-117.333-156.459-270.208-156.459-270.208z" />
<glyph unicode="&#xe94e;" glyph-name="remove-close-circle" d="M512 865.481c-235.264 0-426.667-191.403-426.667-426.667s191.403-426.667 426.667-426.667 426.667 191.403 426.667 426.667-191.403 426.667-426.667 426.667zM712.832 298.313l-60.331-60.331-140.501 140.501-140.501-140.501-60.331 60.331 140.501 140.501-140.501 140.501 60.331 60.331 140.501-140.501 140.501 140.501 60.331-60.331-140.501-140.501 140.501-140.501z" />
<glyph unicode="&#xe94f;" glyph-name="repeat" d="M256 652.19h170.667v-128l170.667 170.667-170.667 170.667v-128h-170.667c-47.061 0-85.333-38.315-85.333-85.333v-426.667c0-47.061 38.272-85.333 85.333-85.333h85.333v85.333h-85.333v426.667zM768 737.524h-85.333v-85.333h85.333v-426.667h-170.667v128l-170.667-170.667 170.667-170.667v128h170.667c47.104 0 85.333 38.272 85.333 85.333v426.667c0 47.019-38.229 85.333-85.333 85.333z" />
<glyph unicode="&#xe950;" glyph-name="rewards-gift" d="M128 353.566v-256c0-47.061 38.272-85.333 85.333-85.333h256v341.333h-341.333zM554.667 353.566v-341.333h256c47.104 0 85.333 38.272 85.333 85.333v256h-341.333zM853.333 609.566h-132.864c19.243 10.027 37.461 22.272 52.693 37.461 49.877 49.877 49.877 131.072 0 181.077-48.427 48.256-132.565 48.299-180.992-0.043-69.845-69.845-79.232-201.301-80.085-216.064-0.085-0.853 0.341-1.579 0.341-2.432h-0.853c0 0.853 0.427 1.579 0.341 2.475-0.811 14.763-10.24 146.219-80.085 216.064-48.427 48.256-132.651 48.256-180.992-0.085-49.92-49.877-49.92-131.072 0-180.992 15.232-15.189 33.451-27.435 52.693-37.461h-132.864c-47.061 0-85.333-38.272-85.333-85.333v-128h384v170.667h85.333v-170.667h384v128c0 47.061-38.229 85.333-85.333 85.333zM311.168 707.358c-16.64 16.683-16.64 43.733 0 60.373 8.021 8.064 18.731 12.459 30.165 12.459s22.144-4.395 30.165-12.459c25.173-25.173 39.851-70.315 47.701-107.947-37.547 7.808-83.029 22.571-108.032 47.573zM604.757 659.7c7.893 37.675 22.528 82.816 47.744 107.989 8.021 8.107 18.731 12.501 30.165 12.501s22.144-4.395 30.123-12.416c16.64-16.683 16.683-43.733 0.043-60.416-25.216-25.216-70.4-39.893-108.075-47.659z" />
<glyph unicode="&#xe951;" glyph-name="rewards-medal" d="M960.64 347.422l-161.152 96.725c7.083 25.515 11.179 52.309 11.179 80.043 0 164.651-134.016 298.667-298.667 298.667s-298.667-134.016-298.667-298.667c0-27.733 4.096-54.528 11.221-80.043l-161.152-96.725c-12.587-7.467-20.395-20.949-20.736-35.584-0.341-14.592 6.827-28.373 18.987-36.48l120.917-80.597 80.597-120.917c7.68-11.477 20.48-18.56 34.347-18.987 0.341 0 0.725 0 1.152 0 13.397 0 26.069 6.272 34.133 17.067l119.723 159.573c19.243-3.883 39.125-5.973 59.477-5.973s40.235 2.091 59.477 6.016l119.723-159.616c8.064-10.795 20.693-17.067 34.133-17.067 0.427 0 0.811 0 1.152 0 13.824 0.427 26.667 7.509 34.347 18.987l80.597 120.917 120.917 80.597c12.16 8.107 19.328 21.931 18.987 36.48-0.341 14.635-8.149 28.117-20.693 35.584zM300.715 171.337l-51.883 77.824c-3.115 4.693-7.168 8.704-11.819 11.819l-71.936 47.915 94.336 56.576c27.136-43.008 64.683-78.805 109.397-103.339l-68.096-90.795zM512 460.19l-128-85.333 42.667 128-85.333 85.333h128l42.667 128 42.667-128h128l-85.333-85.333 42.667-128-128 85.333zM786.987 261.022c-4.651-3.115-8.704-7.125-11.819-11.819l-51.883-77.824-68.139 90.837c44.757 24.533 82.304 60.331 109.397 103.339l94.336-56.576-71.893-47.957z" />
<glyph unicode="&#xe952;" glyph-name="road-highway" d="M631.552 865.524h-239.104l-56.917-256.043h352.896l-56.875 256.043zM554.667 652.148h-85.333v128h85.333v-128zM288.128 396.148l-85.333-383.957h266.539v127.957h85.333v-127.957h266.539l-85.291 383.957h-447.787zM554.667 225.481h-85.333v128h85.333v-128zM896 566.814h-768c-23.552 0-42.667-19.115-42.667-42.667v-298.624h85.333v213.291h682.667v-213.291h85.333v298.624c0 23.552-19.115 42.667-42.667 42.667z" />
<glyph unicode="&#xe953;" glyph-name="road" d="M774.869 831.22c-4.011 19.968-21.504 34.304-41.856 34.304h-442.027c-20.352 0-37.845-14.336-41.813-34.304l-153.6-768c-2.517-12.544 0.725-25.557 8.832-35.413 8.064-9.856 20.181-15.616 32.981-15.616h749.227c12.8 0 24.875 5.76 32.981 15.616 8.107 9.899 11.349 22.869 8.832 35.413l-153.557 768zM554.667 97.524h-85.333v170.667h85.333v-170.667zM554.667 353.524h-85.333v170.667h85.333v-170.667zM554.667 609.524h-85.333v170.667h85.333v-170.667z" />
<glyph unicode="&#xe954;" glyph-name="sign-disable" d="M802.987 140.19l-42.667 213.333h-146.133c-17.451 34.133-43.008 63.403-74.155 85.333h185.301v85.333h-256v71.851c49.621 17.664 85.333 64.555 85.333 120.149 0 70.656-57.301 128-128 128-70.656 0-128-57.344-128-128 0-55.637 35.755-102.528 85.333-120.149v-115.627c-119.595-10.752-213.333-111.147-213.333-233.557 0-129.579 105.088-234.667 234.667-234.667s234.667 105.088 234.667 234.667c0 7.211-0.427 14.293-1.067 21.333h51.456l42.667-213.333h120.277v85.333h-50.347zM405.333 97.524c-82.475 0-149.376 66.859-149.376 149.333 0 82.517 66.901 149.333 149.376 149.333s149.333-66.816 149.333-149.333c0-82.475-66.859-149.333-149.333-149.333z" />
<glyph unicode="&#xe955;" glyph-name="sign-parking" d="M554.667 780.19h-213.333c-23.552 0-42.667-19.115-42.667-42.667v-597.333c0-23.552 19.115-42.667 42.667-42.667h85.333c23.552 0 42.667 19.115 42.667 42.667v128h85.333c141.184 0 256 114.816 256 256s-114.816 256-256 256zM554.667 438.857h-85.333v170.667h85.333c47.104 0 85.333-38.315 85.333-85.333s-38.229-85.333-85.333-85.333z" />
<glyph unicode="&#xe956;" glyph-name="sign-toilet" d="M896 694.857c0-47.128-38.205-85.333-85.333-85.333s-85.333 38.205-85.333 85.333c0 47.128 38.205 85.333 85.333 85.333s85.333-38.205 85.333-85.333zM810.667 566.857c-102.101 0-170.667-85.717-170.667-213.333v-85.333c0-23.552 19.115-42.667 42.667-42.667h42.667v-170.667c0-23.552 19.115-42.667 42.667-42.667h85.333c23.552 0 42.667 19.115 42.667 42.667v170.667h42.667c23.552 0 42.667 19.115 42.667 42.667v85.333c0 127.616-68.565 213.333-170.667 213.333zM469.333 865.524h85.333v-853.333h-85.333v853.333zM298.667 694.857c0-47.128-38.205-85.333-85.333-85.333s-85.333 38.205-85.333 85.333c0 47.128 38.205 85.333 85.333 85.333s85.333-38.205 85.333-85.333zM348.8 330.782c-52.309 213.76-57.771 236.075-136.405 236.075-76.757 0-82.261-22.357-134.571-236.331-9.344-38.187-20.437-83.499-33.877-137.344-3.157-12.587-0.384-25.941 7.467-36.267 7.893-10.283 20.011-16.427 33.024-16.725 0 0 31.787-0.683 56.832-0.768 8.192-24.448 20.395-62.507 31.403-97.408 5.547-17.749 22.016-29.824 40.661-29.824s35.115 12.075 40.704 29.824c11.008 34.901 23.253 72.96 31.403 97.408 25.045 0.085 56.789 0.768 56.789 0.768 12.971 0.299 25.131 6.443 32.981 16.768 7.893 10.325 10.624 23.637 7.467 36.267-13.44 53.931-24.533 99.328-33.877 137.557z" />
<glyph unicode="&#xe957;" glyph-name="tag" d="M926.165 383.689l-469.333 469.333c-8.021 8.021-18.816 12.501-30.165 12.501h-298.667c-23.595 0-42.667-19.072-42.667-42.667v-298.667c0-11.349 4.48-22.144 12.501-30.165l469.333-469.333c8.064-8.064 18.944-12.501 30.165-12.501 2.816 0 5.76 0.299 8.576 0.896 14.037 2.859 25.728 12.629 31.061 25.941l78.549 196.352 196.352 78.549c13.312 5.333 23.083 16.981 25.941 31.061 2.859 14.037-1.493 28.544-11.648 38.699zM298.667 566.857c-47.189 0-85.333 38.229-85.333 85.333 0 47.189 38.144 85.333 85.333 85.333 47.104 0 85.333-38.144 85.333-85.333 0-47.104-38.229-85.333-85.333-85.333z" />
<glyph unicode="&#xe958;" glyph-name="target" d="M938.667 481.438h-88.32c-19.328 154.069-141.611 276.395-295.68 295.723v88.32h-85.333v-88.277c-154.069-19.371-276.352-141.653-295.68-295.723h-88.32v-85.333h88.32c19.328-154.069 141.568-276.352 295.68-295.723v-88.277h85.333v88.277c154.069 19.371 276.352 141.653 295.68 295.723h88.32v85.291zM764.117 481.438h-87.552c-15.488 59.691-62.251 106.411-121.899 121.941v87.552c106.965-18.048 191.403-102.528 209.451-209.493zM512 353.438c-47.104 0-85.333 38.315-85.333 85.333s38.229 85.333 85.333 85.333c47.019 0 85.333-38.315 85.333-85.333s-38.315-85.333-85.333-85.333zM469.333 690.932v-87.552c-59.691-15.531-106.411-62.251-121.941-121.941h-87.509c18.048 106.965 102.443 191.445 209.451 209.493zM259.883 396.105h87.509c15.531-59.648 62.251-106.411 121.941-121.899v-87.552c-107.008 18.048-191.403 102.485-209.451 209.451zM554.667 186.654v87.552c59.648 15.531 106.411 62.251 121.899 121.941h87.552c-18.048-107.008-102.485-191.445-209.451-209.493z" />
<glyph unicode="&#xe959;" glyph-name="ticket-event" d="M896 524.19c23.595 0 42.667 19.072 42.667 42.667v170.667c0 23.595-19.072 42.667-42.667 42.667h-768c-23.552 0-42.667-19.072-42.667-42.667v-170.667c0-23.595 19.072-42.667 42.667-42.667 47.104 0 85.333-38.229 85.333-85.333 0-47.019-38.272-85.333-85.333-85.333-23.595 0-42.667-19.072-42.667-42.667v-170.667c0-23.595 19.072-42.667 42.667-42.667h768c23.595 0 42.667 19.072 42.667 42.667v170.667c0 23.595-19.072 42.667-42.667 42.667-47.104 0-85.333 38.315-85.333 85.333 0 47.104 38.272 85.333 85.333 85.333zM512 310.857c0-23.595-19.072-42.667-42.667-42.667h-85.333c-23.595 0-42.667 19.072-42.667 42.667v256c0 23.595 19.072 42.667 42.667 42.667h85.333c23.595 0 42.667-19.072 42.667-42.667v-256zM682.667 268.19c-23.595 0-42.667 19.072-42.667 42.667s19.072 42.667 42.667 42.667 42.667-19.072 42.667-42.667-19.072-42.667-42.667-42.667zM682.667 396.19c-23.595 0-42.667 19.072-42.667 42.667s19.072 42.667 42.667 42.667 42.667-19.072 42.667-42.667-19.072-42.667-42.667-42.667zM682.667 524.19c-23.595 0-42.667 19.072-42.667 42.667s19.072 42.667 42.667 42.667 42.667-19.072 42.667-42.667-19.072-42.667-42.667-42.667z" />
<glyph unicode="&#xe95a;" glyph-name="traffic-light" d="M128 694.857l128-51.2v136.533h-128zM128 438.857l128-51.2v136.533h-128zM128 182.857l128-51.2v136.533h-128zM768 131.657l128 51.2v85.333h-128zM640 865.524h-256c-47.104 0-85.333-38.187-85.333-85.333v-682.667c0-47.104 38.229-85.333 85.333-85.333h256c47.104 0 85.333 38.229 85.333 85.333v682.667c0 47.147-38.229 85.333-85.333 85.333zM512 97.524c-47.104 0-85.333 38.229-85.333 85.333s38.229 85.333 85.333 85.333 85.333-38.229 85.333-85.333-38.229-85.333-85.333-85.333zM512 353.524c-47.104 0-85.333 38.229-85.333 85.333s38.229 85.333 85.333 85.333 85.333-38.229 85.333-85.333-38.229-85.333-85.333-85.333zM512 609.524c-47.104 0-85.333 38.229-85.333 85.333s38.229 85.333 85.333 85.333 85.333-38.229 85.333-85.333-38.229-85.333-85.333-85.333zM768 780.19v-136.533l128 51.2v85.333zM768 387.657l128 51.2v85.333h-128z" />
<glyph unicode="&#xe95b;" glyph-name="train-tunnel" d="M853.333 12.19h85.333l-128 256h-597.333l-128-256h85.333l21.333 42.667h640l21.333-42.667zM234.667 140.19l21.333 42.667h512l21.333-42.667h-554.667zM810.667 566.857c0 164.949-133.717 298.667-298.667 298.667s-298.667-133.717-298.667-298.667v-256h597.333v256zM384 417.524c-23.552 0-42.667 19.115-42.667 42.667s19.115 42.667 42.667 42.667 42.667-19.115 42.667-42.667c0-23.552-19.115-42.667-42.667-42.667zM640 417.524c-23.552 0-42.667 19.115-42.667 42.667s19.115 42.667 42.667 42.667 42.667-19.115 42.667-42.667c0-23.552-19.115-42.667-42.667-42.667zM341.333 566.857c0 94.251 76.416 170.667 170.667 170.667s170.667-76.416 170.667-170.667h-341.333z" />
<glyph unicode="&#xe95c;" glyph-name="tram" d="M341.333 97.524c0 15.616-4.523 30.080-11.819 42.667h322.347c-7.339-12.587-11.861-27.051-11.861-42.667 0-47.104 38.229-85.333 85.333-85.333s85.333 38.229 85.333 85.333c0 15.616-4.48 30.080-11.819 42.667h54.485c23.552 0 42.667 19.072 42.667 42.667v256c0 23.595-19.115 42.667-42.667 42.667h-725.333c-23.552 0-42.667-19.072-42.667-42.667v-256c0-23.595 19.115-42.667 42.667-42.667h54.485c-7.296-12.587-11.819-27.051-11.819-42.667 0-47.104 38.229-85.333 85.333-85.333s85.333 38.229 85.333 85.333zM682.667 396.19h128v-128h-128v128zM426.667 396.19h128v-128h-128v128zM170.667 396.19h128v-128h-128v128zM85.333 12.19h853.333v-85.333h-853.333v85.333zM768 609.524h-203.349l-56.875 85.333 56.875 85.333h75.349v85.333h-256v-85.333h103.765l-56.875-85.333 56.875-85.333h-231.765v-85.333h512z" />
<glyph unicode="&#xe95d;" glyph-name="upload" d="M810.667 822.814h-597.333c-47.061 0-85.333-38.272-85.333-85.333v-597.333c0-47.019 38.272-85.333 85.333-85.333h597.333c47.104 0 85.333 38.315 85.333 85.333v597.333c0 47.061-38.229 85.333-85.333 85.333zM652.501 408.649l-97.835 97.835v-281.003h-85.333v281.003l-97.835-97.835-60.331 60.331 200.832 200.832 200.832-200.832-60.331-60.331z" />
<glyph unicode="&#xe95e;" glyph-name="user" d="M512.085 438.601c94.123 0 170.667 76.587 170.667 170.667s-76.544 170.667-170.667 170.667c-94.123 0-170.667-76.587-170.667-170.667s76.587-170.667 170.667-170.667zM512.085 395.934c-200.96 0-341.333-105.259-341.333-256v-42.667h682.667v42.667c0 150.741-140.331 256-341.333 256z" />
<glyph unicode="&#xe95f;" glyph-name="vote-heart" d="M682.667 780.148c-68.011 0-130.987-35.712-170.667-88.747-39.68 53.035-102.656 88.747-170.667 88.747-117.632 0-213.333-95.701-213.333-213.333 0-234.283 346.624-453.632 361.429-462.848 6.912-4.309 14.763-6.485 22.571-6.485s15.659 2.176 22.571 6.485c14.805 9.216 361.429 228.565 361.429 462.848 0 117.632-95.701 213.333-213.333 213.333z" />
<glyph unicode="&#xe960;" glyph-name="file-video" d="M554.667 438.558h-213.333v-256h213.333v96l128-96v256l-128-96zM700.331 908.020h-486.997c-47.061 0-85.333-38.315-85.333-85.333v-768c0-47.061 38.272-85.333 85.333-85.333h597.333c47.061 0 85.333 38.272 85.333 85.333v657.664l-195.669 195.669zM213.333 54.686v768h426.667v-170.667h170.667l0.043-597.333h-597.376z" />
<glyph unicode="&#xe961;" glyph-name="post-pin" d="M938.667 438.857l-422.357 422.357-60.373-60.288 60.373-60.373-211.2-211.243-60.373 60.373-60.331-60.373 181.035-180.992-241.365-241.323 60.331-60.331 241.365 241.323 181.035-180.992 60.331 60.331-60.331 60.331 211.2 211.2 60.331-60.331z" />
<glyph unicode="&#xe962;" glyph-name="cloud" d="M640 652.19c-121.899 0-228.565-72.491-274.645-181.504-21.461 7.125-43.947 10.837-66.688 10.837-117.632 0-213.333-95.701-213.333-213.333s95.701-213.333 213.333-213.333h341.333c164.693 0 298.667 133.973 298.667 298.667 0 164.651-133.973 298.667-298.667 298.667zM640 140.19h-341.333c-70.571 0-128 57.429-128 128s57.429 128 128 128c24.277 0 48.171-7.125 69.077-20.565 11.648-7.552 26.325-8.875 39.125-3.669 12.885 5.205 22.4 16.341 25.557 29.867 22.571 97.152 107.904 165.035 207.573 165.035 117.632 0 213.333-95.701 213.333-213.333s-95.701-213.333-213.333-213.333z" />
<glyph unicode="&#xe963;" glyph-name="cloud-sun" d="M258.176 865.524h85.333v-85.333h-85.333v85.333zM119.211 809.721l60.335-60.404-60.373-60.305-60.335 60.404 60.373 60.305zM0 609.524h85.333v-85.333h-85.333v85.333zM128 566.857c0-16.683 2.603-33.237 7.253-48.683 46.933 30.763 103.253 48.683 163.413 48.683 7.253 0 14.080-0.427 21.333-0.853 29.013 43.904 66.603 81.024 110.080 109.611-31.573 37.973-78.507 61.909-131.413 61.909-94.293 0-170.667-76.373-170.667-170.667zM640 652.19c-121.899 0-228.565-72.491-274.645-181.504-21.461 7.125-43.947 10.837-66.688 10.837-117.632 0-213.333-95.701-213.333-213.333s95.701-213.333 213.333-213.333h341.333c164.693 0 298.667 133.973 298.667 298.667 0 164.651-133.973 298.667-298.667 298.667zM640 140.19h-341.333c-70.571 0-128 57.429-128 128s57.429 128 128 128c24.277 0 48.171-7.125 69.077-20.565 11.648-7.552 26.325-8.875 39.125-3.669 12.885 5.205 22.4 16.341 25.557 29.867 22.571 97.152 107.904 165.035 207.573 165.035 117.632 0 213.333-95.701 213.333-213.333s-95.701-213.333-213.333-213.333zM481.235 806.655l60.322-60.365-60.365-60.322-60.322 60.365 60.365 60.322z" />
<glyph unicode="&#xe964;" glyph-name="cloud-fog" d="M640 737.524c-121.899 0-228.565-72.491-274.645-181.504-21.461 7.125-43.947 10.837-66.688 10.837-117.632 0-213.333-95.701-213.333-213.333 0-76.16 41.045-147.029 107.136-185.045l42.539 73.984c-39.68 22.827-64.341 65.365-64.341 111.061 0 70.571 57.429 128 128 128 24.277 0 48.171-7.125 69.077-20.565 11.605-7.552 26.325-8.875 39.125-3.669 12.885 5.205 22.4 16.341 25.557 29.867 22.571 97.152 107.904 165.035 207.573 165.035 117.632 0 213.333-95.701 213.333-213.333 0-75.989-40.96-146.859-106.88-184.917l42.667-73.899c92.245 53.248 149.547 152.448 149.547 258.816 0 164.651-133.973 298.667-298.667 298.667v0zM405.333 268.19c0-23.564-19.103-42.667-42.667-42.667s-42.667 19.103-42.667 42.667c0 23.564 19.103 42.667 42.667 42.667s42.667-19.103 42.667-42.667zM320 140.19c0-23.564-19.103-42.667-42.667-42.667s-42.667 19.103-42.667 42.667c0 23.564 19.103 42.667 42.667 42.667s42.667-19.103 42.667-42.667zM554.667 268.19c0-23.564-19.103-42.667-42.667-42.667s-42.667 19.103-42.667 42.667c0 23.564 19.103 42.667 42.667 42.667s42.667-19.103 42.667-42.667zM469.333 140.19c0-23.564-19.103-42.667-42.667-42.667s-42.667 19.103-42.667 42.667c0 23.564 19.103 42.667 42.667 42.667s42.667-19.103 42.667-42.667zM704 268.19c0-23.564-19.103-42.667-42.667-42.667s-42.667 19.103-42.667 42.667c0 23.564 19.103 42.667 42.667 42.667s42.667-19.103 42.667-42.667zM618.667 140.19c0-23.564-19.103-42.667-42.667-42.667s-42.667 19.103-42.667 42.667c0 23.564 19.103 42.667 42.667 42.667s42.667-19.103 42.667-42.667z" />
<glyph unicode="&#xe965;" glyph-name="cloud-rain" d="M640 737.524c-121.899 0-228.565-72.491-274.645-181.504-21.461 7.125-43.947 10.837-66.688 10.837-117.632 0-213.333-95.701-213.333-213.333 0-76.16 41.045-147.029 107.136-185.045l42.539 73.984c-39.68 22.827-64.341 65.365-64.341 111.061 0 70.571 57.429 128 128 128 24.277 0 48.171-7.125 69.077-20.565 11.648-7.552 26.325-8.875 39.125-3.669 12.885 5.205 22.4 16.341 25.557 29.867 22.571 97.152 107.904 165.035 207.573 165.035 117.632 0 213.333-95.701 213.333-213.333 0-75.989-40.96-146.859-106.88-184.917l42.667-73.899c92.245 53.248 149.547 152.448 149.547 258.816 0 164.651-133.973 298.667-298.667 298.667v0zM249.91 114.002l128.001 213.335 54.88-32.928-128.001-213.335-54.88 32.928zM603.523 81.093l-54.891 32.908 127.924 213.381 54.891-32.908-127.924-213.381zM399.245 114.004l128.001 213.335 54.88-32.928-128.001-213.335-54.88 32.928z" />
<glyph unicode="&#xe966;" glyph-name="cloud-snow" d="M640 737.524c-121.899 0-228.565-72.491-274.645-181.504-21.461 7.125-43.947 10.837-66.688 10.837-117.632 0-213.333-95.701-213.333-213.333 0-76.16 41.045-147.029 107.136-185.045l42.539 73.984c-39.68 22.827-64.341 65.365-64.341 111.061 0 70.571 57.429 128 128 128 24.277 0 48.171-7.125 69.077-20.565 11.648-7.552 26.325-8.875 39.125-3.669 12.885 5.205 22.4 16.341 25.557 29.867 22.571 97.152 107.904 165.035 207.573 165.035 117.632 0 213.333-95.701 213.333-213.333 0-75.989-40.96-146.859-106.88-184.917l42.667-73.899c92.245 53.248 149.547 152.448 149.547 258.816 0 164.651-133.973 298.667-298.667 298.667v0zM396.715 248.137l-37.717-37.717-37.717 37.717-45.227-45.269 37.717-37.675-37.717-37.717 45.227-45.227 37.717 37.675 37.717-37.675 45.227 45.227-37.675 37.717 37.675 37.675zM652.715 248.137l-37.717-37.717-37.717 37.717-45.227-45.269 37.717-37.675-37.717-37.717 45.227-45.227 37.717 37.675 37.717-37.675 45.227 45.227-37.675 37.717 37.675 37.675z" />
<glyph unicode="&#xe967;" glyph-name="cloud-lightning" d="M640 737.524c-121.899 0-228.565-72.491-274.645-181.504-21.461 7.125-43.947 10.837-66.688 10.837-117.632 0-213.333-95.701-213.333-213.333 0-76.16 41.045-147.029 107.136-185.045l42.539 73.984c-39.68 22.827-64.341 65.365-64.341 111.061 0 70.571 57.429 128 128 128 24.277 0 48.171-7.125 69.077-20.565 11.648-7.552 26.325-8.875 39.125-3.669 12.885 5.205 22.4 16.341 25.557 29.867 22.571 97.152 107.904 165.035 207.573 165.035 117.632 0 213.333-95.701 213.333-213.333 0-75.989-40.96-146.859-106.88-184.917l42.667-73.899c92.245 53.248 149.547 152.448 149.547 258.816 0 164.651-133.973 298.667-298.667 298.667v0zM512 438.857l-170.667-213.333h128v-170.667l170.667 213.333h-128z" />
<glyph unicode="&#xe968;" glyph-name="sun" d="M512 652.19c-117.632 0-213.333-95.701-213.333-213.333s95.701-213.333 213.333-213.333 213.333 95.701 213.333 213.333-95.701 213.333-213.333 213.333zM512 310.857c-70.571 0-128 57.429-128 128s57.429 128 128 128 128-57.429 128-128-57.429-128-128-128zM469.333 865.524h85.333v-128h-85.333v128zM783.569 770.742l60.339-60.339-90.569-90.569-60.339 60.339 90.569 90.569zM810.667 481.524h128v-85.333h-128v85.333zM783.537 106.953l-90.595 90.544 60.292 60.326 90.595-90.544-60.292-60.326zM469.333 140.19h85.333v-128h-85.333v128zM240.514 106.984l-60.318 60.301 90.496 90.522 60.318-60.301-90.496-90.522zM85.333 481.524h128v-85.333h-128v85.333zM240.484 770.727l90.483-90.534-60.356-60.322-90.483 90.534 60.356 60.322z" />
<glyph unicode="&#xf002;" glyph-name="search" horiz-adv-x="951" d="M658.286 475.428c0 141.143-114.857 256-256 256s-256-114.857-256-256 114.857-256 256-256 256 114.857 256 256zM950.857 0c0-40-33.143-73.143-73.143-73.143-19.429 0-38.286 8-51.429 21.714l-196 195.429c-66.857-46.286-146.857-70.857-228-70.857-222.286 0-402.286 180-402.286 402.286s180 402.286 402.286 402.286 402.286-180 402.286-402.286c0-81.143-24.571-161.143-70.857-228l196-196c13.143-13.143 21.143-32 21.143-51.429z" />
<glyph unicode="&#xf003;" glyph-name="envelope-o" d="M950.857 91.428v438.857c-12-13.714-25.143-26.286-39.429-37.714-81.714-62.857-164-126.857-243.429-193.143-42.857-36-96-80-155.429-80h-1.143c-59.429 0-112.571 44-155.429 80-79.429 66.286-161.714 130.286-243.429 193.143-14.286 11.429-27.429 24-39.429 37.714v-438.857c0-9.714 8.571-18.286 18.286-18.286h841.143c9.714 0 18.286 8.571 18.286 18.286zM950.857 692c0 14.286 3.429 39.429-18.286 39.429h-841.143c-9.714 0-18.286-8.571-18.286-18.286 0-65.143 32.571-121.714 84-162.286 76.571-60 153.143-120.571 229.143-181.143 30.286-24.571 85.143-77.143 125.143-77.143h1.143c40 0 94.857 52.571 125.143 77.143 76 60.571 152.571 121.143 229.143 181.143 37.143 29.143 84 92.571 84 141.143zM1024 713.143v-621.714c0-50.286-41.143-91.429-91.429-91.429h-841.143c-50.286 0-91.429 41.143-91.429 91.429v621.714c0 50.286 41.143 91.429 91.429 91.429h841.143c50.286 0 91.429-41.143 91.429-91.429z" />
<glyph unicode="&#xf00c;" glyph-name="check" d="M954.857 627.428c0-14.286-5.714-28.571-16-38.857l-491.429-491.429c-10.286-10.286-24.571-16-38.857-16s-28.571 5.714-38.857 16l-284.571 284.571c-10.286 10.286-16 24.571-16 38.857s5.714 28.571 16 38.857l77.714 77.714c10.286 10.286 24.571 16 38.857 16s28.571-5.714 38.857-16l168-168.571 374.857 375.429c10.286 10.286 24.571 16 38.857 16s28.571-5.714 38.857-16l77.714-77.714c10.286-10.286 16-24.571 16-38.857z" />
<glyph unicode="&#xf00d;" glyph-name="close" horiz-adv-x="805" d="M741.714 195.428c0-14.286-5.714-28.571-16-38.857l-77.714-77.714c-10.286-10.286-24.571-16-38.857-16s-28.571 5.714-38.857 16l-168 168-168-168c-10.286-10.286-24.571-16-38.857-16s-28.571 5.714-38.857 16l-77.714 77.714c-10.286 10.286-16 24.571-16 38.857s5.714 28.571 16 38.857l168 168-168 168c-10.286 10.286-16 24.571-16 38.857s5.714 28.571 16 38.857l77.714 77.714c10.286 10.286 24.571 16 38.857 16s28.571-5.714 38.857-16l168-168 168 168c10.286 10.286 24.571 16 38.857 16s28.571-5.714 38.857-16l77.714-77.714c10.286-10.286 16-24.571 16-38.857s-5.714-28.571-16-38.857l-168-168 168-168c10.286-10.286 16-24.571 16-38.857z" />
<glyph unicode="&#xf013;" glyph-name="cog" horiz-adv-x="878" d="M585.143 438.857c0 80.571-65.714 146.286-146.286 146.286s-146.286-65.714-146.286-146.286 65.714-146.286 146.286-146.286 146.286 65.714 146.286 146.286zM877.714 501.143v-126.857c0-8.571-6.857-18.857-16-20.571l-105.714-16c-6.286-18.286-13.143-35.429-22.286-52 19.429-28 40-53.143 61.143-78.857 3.429-4 5.714-9.143 5.714-14.286s-1.714-9.143-5.143-13.143c-13.714-18.286-90.857-102.286-110.286-102.286-5.143 0-10.286 2.286-14.857 5.143l-78.857 61.714c-16.571-8.571-34.286-16-52-21.714-4-34.857-7.429-72-16.571-106.286-2.286-9.143-10.286-16-20.571-16h-126.857c-10.286 0-19.429 7.429-20.571 17.143l-16 105.143c-17.714 5.714-34.857 12.571-51.429 21.143l-80.571-61.143c-4-3.429-9.143-5.143-14.286-5.143s-10.286 2.286-14.286 6.286c-30.286 27.429-70.286 62.857-94.286 96-2.857 4-4 8.571-4 13.143 0 5.143 1.714 9.143 4.571 13.143 19.429 26.286 40.571 51.429 60 78.286-9.714 18.286-17.714 37.143-23.429 56.571l-104.571 15.429c-9.714 1.714-16.571 10.857-16.571 20.571v126.857c0 8.571 6.857 18.857 15.429 20.571l106.286 16c5.714 18.286 13.143 35.429 22.286 52.571-19.429 27.429-40 53.143-61.143 78.857-3.429 4-5.714 8.571-5.714 13.714s2.286 9.143 5.143 13.143c13.714 18.857 90.857 102.286 110.286 102.286 5.143 0 10.286-2.286 14.857-5.714l78.857-61.143c16.571 8.571 34.286 16 52 21.714 4 34.857 7.429 72 16.571 106.286 2.286 9.143 10.286 16 20.571 16h126.857c10.286 0 19.429-7.429 20.571-17.143l16-105.143c17.714-5.714 34.857-12.571 51.429-21.143l81.143 61.143c3.429 3.429 8.571 5.143 13.714 5.143s10.286-2.286 14.286-5.714c30.286-28 70.286-63.429 94.286-97.143 2.857-3.429 4-8 4-12.571 0-5.143-1.714-9.143-4.571-13.143-19.429-26.286-40.571-51.429-60-78.286 9.714-18.286 17.714-37.143 23.429-56l104.571-16c9.714-1.714 16.571-10.857 16.571-20.571z" />
<glyph unicode="&#xf017;" glyph-name="clock-o" horiz-adv-x="878" d="M512 640v-256c0-10.286-8-18.286-18.286-18.286h-182.857c-10.286 0-18.286 8-18.286 18.286v36.571c0 10.286 8 18.286 18.286 18.286h128v201.143c0 10.286 8 18.286 18.286 18.286h36.571c10.286 0 18.286-8 18.286-18.286zM749.714 438.857c0 171.429-139.429 310.857-310.857 310.857s-310.857-139.429-310.857-310.857 139.429-310.857 310.857-310.857 310.857 139.429 310.857 310.857zM877.714 438.857c0-242.286-196.571-438.857-438.857-438.857s-438.857 196.571-438.857 438.857 196.571 438.857 438.857 438.857 438.857-196.571 438.857-438.857z" />
<glyph unicode="&#xf043;" glyph-name="tint" horiz-adv-x="585" d="M292.571 292.571c0 14.286-4.571 28-11.429 39.429-7.429 11.429-37.714 50.286-49.714 88.571-1.714 6.286-7.429 9.143-12 9.143s-10.286-2.857-12-9.143c-12-38.286-42.286-77.143-49.714-88.571-6.857-11.429-11.429-25.143-11.429-39.429 0-40.571 32.571-73.143 73.143-73.143s73.143 32.571 73.143 73.143zM585.143 365.714c0-161.714-130.857-292.571-292.571-292.571s-292.571 130.857-292.571 292.571c0 57.714 17.714 111.429 46.286 157.143 29.143 45.714 151.429 200.571 197.714 354.857 7.429 24.571 30.286 36.571 48.571 36.571s41.714-12 48.571-36.571c46.286-154.286 168.571-309.143 197.714-354.857s46.286-99.429 46.286-157.143z" />
<glyph unicode="&#xf053;" glyph-name="chevron-left" horiz-adv-x="768" d="M669.143 778.857l-303.429-303.429 303.429-303.429c14.286-14.286 14.286-37.143 0-51.429l-94.857-94.857c-14.286-14.286-37.143-14.286-51.429 0l-424 424c-14.286 14.286-14.286 37.143 0 51.429l424 424c14.286 14.286 37.143 14.286 51.429 0l94.857-94.857c14.286-14.286 14.286-37.143 0-51.429z" />
<glyph unicode="&#xf054;" glyph-name="chevron-right" horiz-adv-x="695" d="M632.571 449.714l-424-424c-14.286-14.286-37.143-14.286-51.429 0l-94.857 94.857c-14.286 14.286-14.286 37.143 0 51.429l303.429 303.429-303.429 303.429c-14.286 14.286-14.286 37.143 0 51.429l94.857 94.857c14.286 14.286 37.143 14.286 51.429 0l424-424c14.286-14.286 14.286-37.143 0-51.429z" />
<glyph unicode="&#xf077;" glyph-name="chevron-up" d="M961.714 190.286l-94.857-94.286c-14.286-14.286-37.143-14.286-51.429 0l-303.429 303.429-303.429-303.429c-14.286-14.286-37.143-14.286-51.429 0l-94.857 94.286c-14.286 14.286-14.286 37.714 0 52l424 423.429c14.286 14.286 37.143 14.286 51.429 0l424-423.429c14.286-14.286 14.286-37.714 0-52z" />
<glyph unicode="&#xf078;" glyph-name="chevron-down" d="M961.714 489.143l-424-423.429c-14.286-14.286-37.143-14.286-51.429 0l-424 423.429c-14.286 14.286-14.286 37.714 0 52l94.857 94.286c14.286 14.286 37.143 14.286 51.429 0l303.429-303.429 303.429 303.429c14.286 14.286 37.143 14.286 51.429 0l94.857-94.286c14.286-14.286 14.286-37.714 0-52z" />
<glyph unicode="&#xf07b;" glyph-name="folder" horiz-adv-x="951" d="M950.857 603.428v-402.286c0-70.286-57.714-128-128-128h-694.857c-70.286 0-128 57.714-128 128v548.571c0 70.286 57.714 128 128 128h182.857c70.286 0 128-57.714 128-128v-18.286h384c70.286 0 128-57.714 128-128z" />
<glyph unicode="&#xf095;" glyph-name="phone" horiz-adv-x="805" d="M804.571 242.286c0-20.571-9.143-60.571-17.714-79.429-12-28-44-46.286-69.714-60.571-33.714-18.286-68-29.143-106.286-29.143-53.143 0-101.143 21.714-149.714 39.429-34.857 12.571-68.571 28-100 47.429-97.143 60-214.286 177.143-274.286 274.286-19.429 31.429-34.857 65.143-47.429 100-17.714 48.571-39.429 96.571-39.429 149.714 0 38.286 10.857 72.571 29.143 106.286 14.286 25.714 32.571 57.714 60.571 69.714 18.857 8.571 58.857 17.714 79.429 17.714 4 0 8 0 12-1.714 12-4 24.571-32 30.286-43.429 18.286-32.571 36-65.714 54.857-97.714 9.143-14.857 26.286-33.143 26.286-50.857 0-34.857-103.429-85.714-103.429-116.571 0-15.429 14.286-35.429 22.286-49.143 57.714-104 129.714-176 233.714-233.714 13.714-8 33.714-22.286 49.143-22.286 30.857 0 81.714 103.429 116.571 103.429 17.714 0 36-17.143 50.857-26.286 32-18.857 65.143-36.571 97.714-54.857 11.429-5.714 39.429-18.286 43.429-30.286 1.714-4 1.714-8 1.714-12z" />
<glyph unicode="&#xf099;" glyph-name="twitter" horiz-adv-x="951" d="M925.714 717.714c-25.143-36.571-56.571-69.143-92.571-95.429 0.571-8 0.571-16 0.571-24 0-244-185.714-525.143-525.143-525.143-104.571 0-201.714 30.286-283.429 82.857 14.857-1.714 29.143-2.286 44.571-2.286 86.286 0 165.714 29.143 229.143 78.857-81.143 1.714-149.143 54.857-172.571 128 11.429-1.714 22.857-2.857 34.857-2.857 16.571 0 33.143 2.286 48.571 6.286-84.571 17.143-148 91.429-148 181.143v2.286c24.571-13.714 53.143-22.286 83.429-23.429-49.714 33.143-82.286 89.714-82.286 153.714 0 34.286 9.143 65.714 25.143 93.143 90.857-112 227.429-185.143 380.571-193.143-2.857 13.714-4.571 28-4.571 42.286 0 101.714 82.286 184.571 184.571 184.571 53.143 0 101.143-22.286 134.857-58.286 41.714 8 81.714 23.429 117.143 44.571-13.714-42.857-42.857-78.857-81.143-101.714 37.143 4 73.143 14.286 106.286 28.571z" />
<glyph unicode="&#xf09a;" glyph-name="facebook" horiz-adv-x="602" d="M548 944v-150.857h-89.714c-70.286 0-83.429-33.714-83.429-82.286v-108h167.429l-22.286-169.143h-145.143v-433.714h-174.857v433.714h-145.714v169.143h145.714v124.571c0 144.571 88.571 223.429 217.714 223.429 61.714 0 114.857-4.571 130.286-6.857z" />
<glyph unicode="&#xf09b;" glyph-name="github" horiz-adv-x="878" d="M438.857 877.714c242.286 0 438.857-196.571 438.857-438.857 0-193.714-125.714-358.286-300-416.571-22.286-4-30.286 9.714-30.286 21.143 0 14.286 0.571 61.714 0.571 120.571 0 41.143-13.714 67.429-29.714 81.143 97.714 10.857 200.571 48 200.571 216.571 0 48-17.143 86.857-45.143 117.714 4.571 11.429 19.429 56-4.571 116.571-36.571 11.429-120.571-45.143-120.571-45.143-34.857 9.714-72.571 14.857-109.714 14.857s-74.857-5.143-109.714-14.857c0 0-84 56.571-120.571 45.143-24-60.571-9.143-105.143-4.571-116.571-28-30.857-45.143-69.714-45.143-117.714 0-168 102.286-205.714 200-216.571-12.571-11.429-24-30.857-28-58.857-25.143-11.429-89.143-30.857-127.429 36.571-24 41.714-67.429 45.143-67.429 45.143-42.857 0.571-2.857-26.857-2.857-26.857 28.571-13.143 48.571-64 48.571-64 25.714-78.286 148-52 148-52 0-36.571 0.571-70.857 0.571-81.714 0-11.429-8-25.143-30.286-21.143-174.286 58.286-300 222.857-300 416.571 0 242.286 196.571 438.857 438.857 438.857zM166.286 247.428c1.143 2.286-0.571 5.143-4 6.857-3.429 1.143-6.286 0.571-7.429-1.143-1.143-2.286 0.571-5.143 4-6.857 2.857-1.714 6.286-1.143 7.429 1.143zM184 228c2.286 1.714 1.714 5.714-1.143 9.143-2.857 2.857-6.857 4-9.143 1.714-2.286-1.714-1.714-5.714 1.143-9.143 2.857-2.857 6.857-4 9.143-1.714zM201.143 202.286c2.857 2.286 2.857 6.857 0 10.857-2.286 4-6.857 5.714-9.714 3.429-2.857-1.714-2.857-6.286 0-10.286s7.429-5.714 9.714-4zM225.143 178.286c2.286 2.286 1.143 7.429-2.286 10.857-4 4-9.143 4.571-11.429 1.714-2.857-2.286-1.714-7.429 2.286-10.857 4-4 9.143-4.571 11.429-1.714zM257.714 164c1.143 3.429-2.286 7.429-7.429 9.143-4.571 1.143-9.714-0.571-10.857-4s2.286-7.429 7.429-8.571c4.571-1.714 9.714 0 10.857 3.429zM293.714 161.143c0 4-4.571 6.857-9.714 6.286-5.143 0-9.143-2.857-9.143-6.286 0-4 4-6.857 9.714-6.286 5.143 0 9.143 2.857 9.143 6.286zM326.857 166.857c-0.571 3.429-5.143 5.714-10.286 5.143-5.143-1.143-8.571-4.571-8-8.571 0.571-3.429 5.143-5.714 10.286-4.571s8.571 4.571 8 8z" />
<glyph unicode="&#xf0c1;" glyph-name="link" horiz-adv-x="951" d="M832 256c0 14.857-5.714 28.571-16 38.857l-118.857 118.857c-10.286 10.286-24.571 16-38.857 16-16.571 0-29.714-6.286-41.143-18.286 18.857-18.857 41.143-34.857 41.143-64 0-30.286-24.571-54.857-54.857-54.857-29.143 0-45.143 22.286-64 41.143-12-11.429-18.857-24.571-18.857-41.714 0-14.286 5.714-28.571 16-38.857l117.714-118.286c10.286-10.286 24.571-15.429 38.857-15.429s28.571 5.143 38.857 14.857l84 83.429c10.286 10.286 16 24 16 38.286zM430.286 658.857c0 14.286-5.714 28.571-16 38.857l-117.714 118.286c-10.286 10.286-24.571 16-38.857 16s-28.571-5.714-38.857-15.429l-84-83.429c-10.286-10.286-16-24-16-38.286 0-14.857 5.714-28.571 16-38.857l118.857-118.857c10.286-10.286 24.571-15.429 38.857-15.429 16.571 0 29.714 5.714 41.143 17.714-18.857 18.857-41.143 34.857-41.143 64 0 30.286 24.571 54.857 54.857 54.857 29.143 0 45.143-22.286 64-41.143 12 11.429 18.857 24.571 18.857 41.714zM941.714 256c0-43.429-17.714-85.714-48.571-116l-84-83.429c-30.857-30.857-72.571-47.429-116-47.429-44 0-85.714 17.143-116.571 48.571l-117.714 118.286c-30.857 30.857-47.429 72.571-47.429 116 0 45.143 18.286 88 50.286 119.429l-50.286 50.286c-31.429-32-73.714-50.286-118.857-50.286-43.429 0-85.714 17.143-116.571 48l-118.857 118.857c-31.429 31.429-48 72.571-48 116.571 0 43.429 17.714 85.714 48.571 116l84 83.429c30.857 30.857 72.571 47.429 116 47.429 44 0 85.714-17.143 116.571-48.571l117.714-118.286c30.857-30.857 47.429-72.571 47.429-116 0-45.143-18.286-88-50.286-119.429l50.286-50.286c31.429 32 73.714 50.286 118.857 50.286 43.429 0 85.714-17.143 116.571-48l118.857-118.857c31.429-31.429 48-72.571 48-116.571z" />
<glyph unicode="&#xf0c9;" glyph-name="bars" horiz-adv-x="878" d="M877.714 182.857v-73.143c0-20-16.571-36.571-36.571-36.571h-804.571c-20 0-36.571 16.571-36.571 36.571v73.143c0 20 16.571 36.571 36.571 36.571h804.571c20 0 36.571-16.571 36.571-36.571zM877.714 475.428v-73.143c0-20-16.571-36.571-36.571-36.571h-804.571c-20 0-36.571 16.571-36.571 36.571v73.143c0 20 16.571 36.571 36.571 36.571h804.571c20 0 36.571-16.571 36.571-36.571zM877.714 768v-73.143c0-20-16.571-36.571-36.571-36.571h-804.571c-20 0-36.571 16.571-36.571 36.571v73.143c0 20 16.571 36.571 36.571 36.571h804.571c20 0 36.571-16.571 36.571-36.571z" />
<glyph unicode="&#xf0d2;" glyph-name="pinterest" horiz-adv-x="878" d="M877.714 438.857c0-242.286-196.571-438.857-438.857-438.857-43.429 0-84.571 6.286-124.571 18.286 16.571 26.286 35.429 60 44.571 93.714 0 0 5.143 19.429 30.857 120.571 14.857-29.143 59.429-54.857 106.857-54.857 141.143 0 237.143 128.571 237.143 301.143 0 129.714-110.286 251.429-278.286 251.429-208 0-313.143-149.714-313.143-274.286 0-75.429 28.571-142.857 89.714-168 9.714-4 18.857 0 21.714 11.429 2.286 7.429 6.857 26.857 9.143 34.857 2.857 11.429 1.714 14.857-6.286 24.571-17.714 21.143-29.143 48-29.143 86.286 0 110.857 82.857 210.286 216 210.286 117.714 0 182.857-72 182.857-168.571 0-126.286-56-233.143-139.429-233.143-45.714 0-80 37.714-69.143 84.571 13.143 55.429 38.857 115.429 38.857 155.429 0 36-19.429 66.286-59.429 66.286-46.857 0-84.571-48.571-84.571-113.714 0 0 0-41.714 14.286-69.714-48-203.429-56.571-238.857-56.571-238.857-8-33.143-8.571-70.286-7.429-101.143-154.857 68-262.857 222.286-262.857 402.286 0 242.286 196.571 438.857 438.857 438.857s438.857-196.571 438.857-438.857z" />
<glyph unicode="&#xf0d5;" glyph-name="google-plus" horiz-adv-x="1317" d="M821.143 429.143c0-239.429-160.571-409.143-402.286-409.143-231.429 0-418.857 187.429-418.857 418.857s187.429 418.857 418.857 418.857c113.143 0 207.429-41.143 280.571-109.714l-113.714-109.143c-30.857 29.714-85.143 64.571-166.857 64.571-142.857 0-259.429-118.286-259.429-264.571s116.571-264.571 259.429-264.571c165.714 0 228 119.429 237.714 180.571h-237.714v144h395.429c4-21.143 6.857-42.286 6.857-69.714zM1316.571 498.857v-120h-119.429v-119.429h-120v119.429h-119.429v120h119.429v119.429h120v-119.429h119.429z" />
<glyph unicode="&#xf0d7;" glyph-name="caret-down" horiz-adv-x="585" d="M585.143 548.571c0-9.714-4-18.857-10.857-25.714l-256-256c-6.857-6.857-16-10.857-25.714-10.857s-18.857 4-25.714 10.857l-256 256c-6.857 6.857-10.857 16-10.857 25.714 0 20 16.571 36.571 36.571 36.571h512c20 0 36.571-16.571 36.571-36.571z" />
<glyph unicode="&#xf0d8;" glyph-name="caret-up" horiz-adv-x="585" d="M585.143 256c0-20-16.571-36.571-36.571-36.571h-512c-20 0-36.571 16.571-36.571 36.571 0 9.714 4 18.857 10.857 25.714l256 256c6.857 6.857 16 10.857 25.714 10.857s18.857-4 25.714-10.857l256-256c6.857-6.857 10.857-16 10.857-25.714z" />
<glyph unicode="&#xf0d9;" glyph-name="caret-left" horiz-adv-x="402" d="M365.714 694.857v-512c0-20-16.571-36.571-36.571-36.571-9.714 0-18.857 4-25.714 10.857l-256 256c-6.857 6.857-10.857 16-10.857 25.714s4 18.857 10.857 25.714l256 256c6.857 6.857 16 10.857 25.714 10.857 20 0 36.571-16.571 36.571-36.571z" />
<glyph unicode="&#xf0da;" glyph-name="caret-right" horiz-adv-x="329" d="M329.143 438.857c0-9.714-4-18.857-10.857-25.714l-256-256c-6.857-6.857-16-10.857-25.714-10.857-20 0-36.571 16.571-36.571 36.571v512c0 20 16.571 36.571 36.571 36.571 9.714 0 18.857-4 25.714-10.857l256-256c6.857-6.857 10.857-16 10.857-25.714z" />
<glyph unicode="&#xf0e0;" glyph-name="envelope" d="M1024 545.143v-453.714c0-50.286-41.143-91.429-91.429-91.429h-841.143c-50.286 0-91.429 41.143-91.429 91.429v453.714c17.143-18.857 36.571-35.429 57.714-49.714 94.857-64.571 190.857-129.143 284-197.143 48-35.429 107.429-78.857 169.714-78.857h1.143c62.286 0 121.714 43.429 169.714 78.857 93.143 67.429 189.143 132.571 284.571 197.143 20.571 14.286 40 30.857 57.143 49.714zM1024 713.143c0-64-47.429-121.714-97.714-156.571-89.143-61.714-178.857-123.429-267.429-185.714-37.143-25.714-100-78.286-146.286-78.286h-1.143c-46.286 0-109.143 52.571-146.286 78.286-88.571 62.286-178.286 124-266.857 185.714-40.571 27.429-98.286 92-98.286 144 0 56 30.286 104 91.429 104h841.143c49.714 0 91.429-41.143 91.429-91.429z" />
<glyph unicode="&#xf0e1;" glyph-name="linkedin" horiz-adv-x="878" d="M199.429 593.714v-566.286h-188.571v566.286h188.571zM211.429 768.571c0.571-54.286-40.571-97.714-106.286-97.714v0h-1.143c-63.429 0-104 43.429-104 97.714 0 55.429 42.286 97.714 106.286 97.714 64.571 0 104.571-42.286 105.143-97.714zM877.714 352v-324.571h-188v302.857c0 76-27.429 128-95.429 128-52 0-82.857-34.857-96.571-68.571-4.571-12.571-6.286-29.143-6.286-46.286v-316h-188c2.286 513.143 0 566.286 0 566.286h188v-82.286h-1.143c24.571 38.857 69.143 95.429 170.857 95.429 124 0 216.571-81.143 216.571-254.857z" />
<glyph unicode="&#xf104;" glyph-name="angle-left" horiz-adv-x="384" d="M358.286 640c0-4.571-2.286-9.714-5.714-13.143l-224.571-224.571 224.571-224.571c3.429-3.429 5.714-8.571 5.714-13.143s-2.286-9.714-5.714-13.143l-28.571-28.571c-3.429-3.429-8.571-5.714-13.143-5.714s-9.714 2.286-13.143 5.714l-266.286 266.286c-3.429 3.429-5.714 8.571-5.714 13.143s2.286 9.714 5.714 13.143l266.286 266.286c3.429 3.429 8.571 5.714 13.143 5.714s9.714-2.286 13.143-5.714l28.571-28.571c3.429-3.429 5.714-8 5.714-13.143z" />
<glyph unicode="&#xf105;" glyph-name="angle-right" horiz-adv-x="347" d="M340 402.286c0-4.571-2.286-9.714-5.714-13.143l-266.286-266.286c-3.429-3.429-8.571-5.714-13.143-5.714s-9.714 2.286-13.143 5.714l-28.571 28.571c-3.429 3.429-5.714 8-5.714 13.143 0 4.571 2.286 9.714 5.714 13.143l224.571 224.571-224.571 224.571c-3.429 3.429-5.714 8.571-5.714 13.143s2.286 9.714 5.714 13.143l28.571 28.571c3.429 3.429 8.571 5.714 13.143 5.714s9.714-2.286 13.143-5.714l266.286-266.286c3.429-3.429 5.714-8.571 5.714-13.143z" />
<glyph unicode="&#xf106;" glyph-name="angle-up" horiz-adv-x="658" d="M614.286 274.286c0-4.571-2.286-9.714-5.714-13.143l-28.571-28.571c-3.429-3.429-8-5.714-13.143-5.714-4.571 0-9.714 2.286-13.143 5.714l-224.571 224.571-224.571-224.571c-3.429-3.429-8.571-5.714-13.143-5.714s-9.714 2.286-13.143 5.714l-28.571 28.571c-3.429 3.429-5.714 8.571-5.714 13.143s2.286 9.714 5.714 13.143l266.286 266.286c3.429 3.429 8.571 5.714 13.143 5.714s9.714-2.286 13.143-5.714l266.286-266.286c3.429-3.429 5.714-8.571 5.714-13.143z" />
<glyph unicode="&#xf107;" glyph-name="angle-down" horiz-adv-x="658" d="M614.286 530.286c0-4.571-2.286-9.714-5.714-13.143l-266.286-266.286c-3.429-3.429-8.571-5.714-13.143-5.714s-9.714 2.286-13.143 5.714l-266.286 266.286c-3.429 3.429-5.714 8.571-5.714 13.143s2.286 9.714 5.714 13.143l28.571 28.571c3.429 3.429 8 5.714 13.143 5.714 4.571 0 9.714-2.286 13.143-5.714l224.571-224.571 224.571 224.571c3.429 3.429 8.571 5.714 13.143 5.714s9.714-2.286 13.143-5.714l28.571-28.571c3.429-3.429 5.714-8.571 5.714-13.143z" />
<glyph unicode="&#xf114;" glyph-name="folder-o" horiz-adv-x="951" d="M877.714 201.143v402.286c0 30.286-24.571 54.857-54.857 54.857h-402.286c-30.286 0-54.857 24.571-54.857 54.857v36.571c0 30.286-24.571 54.857-54.857 54.857h-182.857c-30.286 0-54.857-24.571-54.857-54.857v-548.571c0-30.286 24.571-54.857 54.857-54.857h694.857c30.286 0 54.857 24.571 54.857 54.857zM950.857 603.428v-402.286c0-70.286-57.714-128-128-128h-694.857c-70.286 0-128 57.714-128 128v548.571c0 70.286 57.714 128 128 128h182.857c70.286 0 128-57.714 128-128v-18.286h384c70.286 0 128-57.714 128-128z" />
<glyph unicode="&#xf167;" glyph-name="youtube" horiz-adv-x="878" d="M554.857 240v-120.571c0-25.714-7.429-38.286-22.286-38.286-8.571 0-17.143 4-25.714 12.571v172c8.571 8.571 17.143 12.571 25.714 12.571 14.857 0 22.286-13.143 22.286-38.286zM748 239.428v-26.286h-51.429v26.286c0 25.714 8.571 38.857 25.714 38.857s25.714-13.143 25.714-38.857zM196 364h61.143v53.714h-178.286v-53.714h60v-325.143h57.143v325.143zM360.571 38.857h50.857v282.286h-50.857v-216c-11.429-16-22.286-24-32.571-24-6.857 0-10.857 4-12 12-0.571 1.714-0.571 8-0.571 20v208h-50.857v-223.429c0-20 1.714-33.143 4.571-41.714 4.571-14.286 16.571-21.143 33.143-21.143 18.286 0 37.714 11.429 58.286 34.857v-30.857zM605.714 123.428v112.571c0 26.286-1.143 45.143-5.143 56.571-6.286 21.143-20.571 32-40.571 32-18.857 0-36.571-10.286-53.143-30.857v124h-50.857v-378.857h50.857v27.429c17.143-21.143 34.857-31.429 53.143-31.429 20 0 34.286 10.857 40.571 31.429 4 12 5.143 30.857 5.143 57.143zM798.857 129.143v7.429h-52c0-20.571-0.571-32-1.143-34.857-2.857-13.714-10.286-20.571-22.857-20.571-17.714 0-26.286 13.143-26.286 39.429v49.714h102.286v58.857c0 30.286-5.143 52-15.429 66.286-14.857 19.429-34.857 29.143-60.571 29.143-26.286 0-46.286-9.714-61.143-29.143-10.857-14.286-16-36-16-66.286v-98.857c0-30.286 5.714-52.571 16.571-66.286 14.857-19.429 34.857-29.143 61.714-29.143s48 10.286 61.714 30.286c6.286 9.143 10.857 19.429 12 30.857 1.143 5.143 1.143 16.571 1.143 33.143zM451.429 650.857v120c0 26.286-7.429 39.429-24.571 39.429-16.571 0-24.571-13.143-24.571-39.429v-120c0-26.286 8-40 24.571-40 17.143 0 24.571 13.714 24.571 40zM862.286 221.714c0-65.714-0.571-136-14.857-200-10.857-45.143-47.429-78.286-91.429-82.857-105.143-12-211.429-12-317.143-12s-212 0-317.143 12c-44 4.571-81.143 37.714-91.429 82.857-14.857 64-14.857 134.286-14.857 200v0c0 66.286 0.571 136 14.857 200 10.857 45.143 47.429 78.286 92 83.429 104.571 11.429 210.857 11.429 316.571 11.429s212 0 317.143-11.429c44-5.143 81.143-38.286 91.429-83.429 14.857-64 14.857-133.714 14.857-200zM292 950.857h58.286l-69.143-228v-154.857h-57.143v154.857c-5.143 28-16.571 68-34.857 121.143-12.571 35.429-25.143 71.429-37.143 106.857h60.571l40.571-150.286zM503.429 760.571v-100c0-30.286-5.143-53.143-16-67.429-14.286-19.429-34.286-29.143-60.571-29.143-25.714 0-45.714 9.714-60 29.143-10.857 14.857-16 37.143-16 67.429v100c0 30.286 5.143 52.571 16 66.857 14.286 19.429 34.286 29.143 60 29.143 26.286 0 46.286-9.714 60.571-29.143 10.857-14.286 16-36.571 16-66.857zM694.857 853.143v-285.143h-52v31.429c-20.571-24-40-35.429-58.857-35.429-16.571 0-28.571 6.857-33.714 21.143-2.857 8.571-4.571 22.286-4.571 42.857v225.143h52v-209.714c0-12 0-18.857 0.571-20 1.143-8 5.143-12.571 12-12.571 10.286 0 21.143 8 32.571 24.571v217.714h52z" />
<glyph unicode="&#xf16b;" glyph-name="dropbox" d="M229.714 546.857l282.286-174.286-195.429-162.857-280 182.286zM793.143 229.714v-61.714l-280-167.429v-0.571l-0.571 0.571-0.571-0.571v0.571l-279.429 167.429v61.714l84-54.857 195.429 162.286v1.143l0.571-0.571 0.571 0.571v-1.143l196-162.286zM316.571 883.428l195.429-162.857-282.286-173.714-193.143 154.286zM794.286 546.857l193.143-154.857-279.429-182.286-196 162.857zM708 883.428l279.429-182.286-193.143-154.286-282.286 173.714z" />
<glyph unicode="&#xf16d;" glyph-name="instagram" horiz-adv-x="878" d="M585.143 438.857c0 80.571-65.714 146.286-146.286 146.286s-146.286-65.714-146.286-146.286 65.714-146.286 146.286-146.286 146.286 65.714 146.286 146.286zM664 438.857c0-124.571-100.571-225.143-225.143-225.143s-225.143 100.571-225.143 225.143 100.571 225.143 225.143 225.143 225.143-100.571 225.143-225.143zM725.714 673.143c0-29.143-23.429-52.571-52.571-52.571s-52.571 23.429-52.571 52.571 23.429 52.571 52.571 52.571 52.571-23.429 52.571-52.571zM438.857 798.857c-64 0-201.143 5.143-258.857-17.714-20-8-34.857-17.714-50.286-33.143s-25.143-30.286-33.143-50.286c-22.857-57.714-17.714-194.857-17.714-258.857s-5.143-201.143 17.714-258.857c8-20 17.714-34.857 33.143-50.286s30.286-25.143 50.286-33.143c57.714-22.857 194.857-17.714 258.857-17.714s201.143-5.143 258.857 17.714c20 8 34.857 17.714 50.286 33.143s25.143 30.286 33.143 50.286c22.857 57.714 17.714 194.857 17.714 258.857s5.143 201.143-17.714 258.857c-8 20-17.714 34.857-33.143 50.286s-30.286 25.143-50.286 33.143c-57.714 22.857-194.857 17.714-258.857 17.714zM877.714 438.857c0-60.571 0.571-120.571-2.857-181.143-3.429-70.286-19.429-132.571-70.857-184s-113.714-67.429-184-70.857c-60.571-3.429-120.571-2.857-181.143-2.857s-120.571-0.571-181.143 2.857c-70.286 3.429-132.571 19.429-184 70.857s-67.429 113.714-70.857 184c-3.429 60.571-2.857 120.571-2.857 181.143s-0.571 120.571 2.857 181.143c3.429 70.286 19.429 132.571 70.857 184s113.714 67.429 184 70.857c60.571 3.429 120.571 2.857 181.143 2.857s120.571 0.571 181.143-2.857c70.286-3.429 132.571-19.429 184-70.857s67.429-113.714 70.857-184c3.429-60.571 2.857-120.571 2.857-181.143z" />
<glyph unicode="&#xf16e;" glyph-name="flickr" horiz-adv-x="878" d="M713.143 877.714c90.857 0 164.571-73.714 164.571-164.571v-548.571c0-90.857-73.714-164.571-164.571-164.571h-548.571c-90.857 0-164.571 73.714-164.571 164.571v548.571c0 90.857 73.714 164.571 164.571 164.571h548.571zM398.857 438.857c0 66.857-54.286 121.143-121.143 121.143s-121.143-54.286-121.143-121.143 54.286-121.143 121.143-121.143 121.143 54.286 121.143 121.143zM721.143 438.857c0 66.857-54.286 121.143-121.143 121.143s-121.143-54.286-121.143-121.143 54.286-121.143 121.143-121.143 121.143 54.286 121.143 121.143z" />
<glyph unicode="&#xf173;" glyph-name="tumblr" horiz-adv-x="624" d="M539.429 191.428l45.714-135.429c-17.143-25.714-94.857-54.857-164.571-56-207.429-3.429-285.714 147.429-285.714 253.714v310.857h-96v122.857c144 52 178.857 182.286 186.857 256.571 0.571 4.571 4.571 6.857 6.857 6.857h139.429v-242.286h190.286v-144h-190.857v-296c0-40 14.857-95.429 91.429-93.714 25.143 0.571 58.857 8 76.571 16.571z" />
<glyph unicode="&#xf17d;" glyph-name="dribbble" horiz-adv-x="878" d="M585.143 93.714c-5.714 33.143-27.429 147.429-80 284.571-0.571 0-1.714-0.571-2.286-0.571 0 0-222.286-77.714-294.286-234.286-3.429 2.857-8.571 6.286-8.571 6.286 65.143-53.143 148-85.714 238.857-85.714 52 0 101.143 10.857 146.286 29.714zM479.429 440.571c-9.143 21.143-19.429 42.286-30.286 63.429-193.143-57.714-378.286-53.143-384.571-53.143-0.571-4-0.571-8-0.571-12 0-96 36.571-184 96-250.286v0c102.286 182.286 304.571 247.429 304.571 247.429 5.143 1.714 10.286 2.857 14.857 4.571zM418.286 561.714c-65.143 115.429-134.286 209.143-139.429 216-104.571-49.143-182.286-145.714-206.857-261.714 9.714 0 166.286-1.714 346.286 45.714zM809.143 379.428c-8 2.286-112.571 35.429-233.714 16.571 49.143-135.429 69.143-245.714 73.143-268 84 56.571 143.429 146.857 160.571 251.429zM349.143 802.857c-0.571 0-0.571 0-1.143-0.571 0 0 0.571 0.571 1.143 0.571zM686.286 720c-65.714 58.286-152.571 93.714-247.429 93.714-30.286 0-60-4-88.571-10.857 5.714-7.429 76.571-100.571 140.571-218.286 141.143 52.571 194.286 133.714 195.429 135.429zM813.714 442.857c-1.143 88.571-32.571 170.286-85.143 234.286-1.143-1.143-61.143-88-209.143-148.571 8.571-17.714 17.143-36 25.143-54.286 2.857-6.286 5.143-13.143 8-19.429 129.143 16.571 256.571-11.429 261.143-12zM877.714 438.857c0-242.286-196.571-438.857-438.857-438.857s-438.857 196.571-438.857 438.857 196.571 438.857 438.857 438.857 438.857-196.571 438.857-438.857z" />
<glyph unicode="&#xf17e;" glyph-name="skype" horiz-adv-x="878" d="M670.286 343.428c0 99.429-96.571 133.714-177.714 152l-59.429 13.714c-43.429 10.286-76 17.714-76 50.857 0 30.286 32 44 82.286 44 89.714 0 91.429-65.714 146.857-65.714 37.143 0 59.429 29.143 59.429 62.286 0 65.714-109.143 108.571-217.143 108.571-98.857 0-213.714-42.857-213.714-158.857 0-96 64-130.286 147.429-150.286l83.429-20.571c50.857-12.571 82.286-18.286 82.286-54.857 0-29.143-32.571-51.429-82.857-51.429-105.714 0-111.429 88-172.571 88-40 0-57.714-28.571-57.714-60 0-70.286 107.429-127.429 236-127.429 107.429 0 219.429 53.714 219.429 169.714zM877.714 219.428c0-121.143-98.286-219.429-219.429-219.429-50.286 0-96.571 17.143-133.714 45.714-27.429-5.714-56.571-9.143-85.714-9.143-222.286 0-402.286 180-402.286 402.286 0 29.143 3.429 58.286 9.143 85.714-28.571 37.143-45.714 83.429-45.714 133.714 0 121.143 98.286 219.429 219.429 219.429 50.286 0 96.571-17.143 133.714-45.714 27.429 5.714 56.571 9.143 85.714 9.143 222.286 0 402.286-180 402.286-402.286 0-29.143-3.429-58.286-9.143-85.714 28.571-37.143 45.714-83.429 45.714-133.714z" />
<glyph unicode="&#xf180;" glyph-name="foursquare" horiz-adv-x="742" d="M571.429 702.857l21.143 110.857c4 18.286-9.714 32.571-25.143 32.571h-406.857c-18.286 0-30.857-16.571-30.857-30.857v-629.143c0-1.714 1.714-2.286 3.429-0.571 149.714 180 166.286 201.143 166.286 201.143 17.143 20 24 23.429 49.143 23.429h136.571c18.857 0 29.714 16 31.429 25.143s17.714 92.571 21.143 109.143-12 33.714-27.429 33.714h-168c-22.286 0-38.286 16-38.286 38.286v24c0 22.286 16 37.714 38.286 37.714h197.714c13.714 0 29.143 12.571 31.429 24.571zM701.143 829.714c-21.143-102.857-84.571-428-90.286-451.429-6.857-26.857-17.143-73.714-82.286-73.714h-154.857c-6.286 0-6.857 0.571-12.571-5.714 0 0-4-4.571-243.429-282.286-18.857-21.714-49.714-17.714-61.143-13.143s-31.429 18.286-31.429 56v805.714c0 33.143 20.571 85.714 90.286 85.714h507.429c74.286 0 94.286-42.286 78.286-121.143zM701.143 829.714l-90.286-451.429c5.714 23.429 69.143 348.571 90.286 451.429z" />
<glyph unicode="&#xf189;" glyph-name="vk" horiz-adv-x="1119" d="M1095.429 653.714c8.571-23.429-18.286-78.286-85.714-168-110.857-147.429-122.857-133.714-31.429-218.857 88-81.714 106.286-121.143 109.143-126.286 0 0 36.571-64-40.571-64.571l-146.286-2.286c-31.429-6.286-73.143 22.286-73.143 22.286-54.857 37.714-106.286 135.429-146.286 122.857 0 0-41.143-13.143-40-101.143 0.571-18.857-8.571-29.143-8.571-29.143s-10.286-10.857-30.286-12.571h-65.714c-144.571-9.143-272 124-272 124s-139.429 144-261.714 431.429c-8 18.857 0.571 28 0.571 28s8.571 10.857 32.571 10.857l156.571 1.143c14.857-2.286 25.143-10.286 25.143-10.286s9.143-6.286 13.714-18.286c25.714-64 58.857-122.286 58.857-122.286 57.143-117.714 96-137.714 118.286-125.714 0 0 29.143 17.714 22.857 160-2.286 51.429-16.571 74.857-16.571 74.857-13.143 17.714-37.714 22.857-48.571 24.571-8.571 1.143 5.714 21.714 24.571 30.857 28 13.714 77.714 14.286 136.571 13.714 46.286-0.571 59.429-3.429 77.143-7.429 54.286-13.143 36-63.429 36-184.571 0-38.857-7.429-93.143 20.571-110.857 12-8 41.714-1.143 114.857 123.429 0 0 34.286 59.429 61.143 128.571 4.571 12.571 14.286 17.714 14.286 17.714s9.143 5.143 21.714 3.429l164.571 1.143c49.714 6.286 57.714-16.571 57.714-16.571z" />
</font>
</defs>
</svg>
